Начать новую тему Ответить на тему
Статистика раздачи
Размер: 526.74 МБ | Добавлен: 26 мар 2019, 19:54 | Скачали: 0
Сидеров: 0  [0 байт/сек]    Личеров: 0  [0 байт/сек]
Пред. тема | След. тема 

Автор
Сообщение

СообщениеДобавлено: 26 мар 2019, 19:54 

Ответить с цитатой 

Planetshakers - One
Жанр: Worship, Christian Rock
Год издания диска: 2009
Издатель (лейбл): Integrity Music
Страна: Australia
Аудиокодек: FLAC (*.flac)
Тип рипа: tracks+.cue
Битрейт аудио: lossless
Продолжительность: 1:09:56
Источник (релизер): Blessing
Наличие сканов в содержимом раздачи: нет
Треклист:
01. Get Up (4:33)
02. No Compromise (4:14)
03. Rejoice In You (4:27)
04. Like A Fire (9:50)
05. Lift You High (5:48)
06. Holy Spirit Come (7:09)
07. Dance Now (3:28)
08. You Are Good (5:29)
09. Wonderful Saviour (7:51)
10. Deeper (6:31)
11. Glory Forever (7:30)
12. Get Up (remix) (3:05)
Код:
Exact Audio Copy V0.99 prebeta 5 from 4. May 2009
EAC extraction logfile from 22. June 2010, 19:55
Planetshakers / One
Used drive  : TSSTcorpCD/DVDW SH-S182M   Adapter: 3  ID: 0
Read mode               : Secure
Utilize accurate stream : Yes
Defeat audio cache      : Yes
Make use of C2 pointers : No
Read offset correction                      : 6
Overread into Lead-In and Lead-Out          : No
Fill up missing offset samples with silence : Yes
Delete leading and trailing silent blocks   : No
Null samples used in CRC calculations       : Yes
Used interface                              : Native Win32 interface for Win NT & 2000
Gap handling                                : Appended to previous track
Used output format              : User Defined Encoder
Selected bitrate                : 320 kBit/s
Quality                         : High
Add ID3 tag                     : No
Command line compressor         : C:\Program Files (x86)\Exact Audio Copy\Flac\flac.exe
Additional command line options : -V -8 -T "artist=%a" -T "title=%t" -T "album=%g" -T "date=%y" -T "tracknumber=%n" -T "genre=%m" %s
TOC of the extracted CD
     Track |   Start  |  Length  | Start sector | End sector
    ---------------------------------------------------------
        1  |  0:00.00 |  4:32.44 |         0    |    20443
        2  |  4:32.44 |  4:14.00 |     20444    |    39493
        3  |  8:46.44 |  4:27.16 |     39494    |    59534
        4  | 13:13.60 |  9:49.63 |     59535    |   103772
        5  | 23:03.48 |  5:48.01 |    103773    |   129873
        6  | 28:51.49 |  7:09.03 |    129874    |   162051
        7  | 36:00.52 |  3:28.30 |    162052    |   177681
        8  | 39:29.07 |  5:28.68 |    177682    |   202349
        9  | 44:58.00 |  7:51.24 |    202350    |   237698
       10  | 52:49.24 |  6:30.73 |    237699    |   267021
       11  | 59:20.22 |  7:30.28 |    267022    |   300799
       12  | 66:50.50 |  3:05.33 |    300800    |   314707
Track  1
     Filename G:\FLAC\01 - Get Up - Planetshakers - One - 2009 - Christian.wav
     Pre-gap length  0:00:02.00
     Peak level 100.0 %
     Track quality 99.9 %
     Test CRC C00821A2
     Copy CRC C00821A2
     Track not present in AccurateRip database
     Copy OK
Track  2
     Filename G:\FLAC\02 - No Compromise - Planetshakers - One - 2009 - Christian.wav
     Peak level 100.0 %
     Track quality 99.9 %
     Test CRC 6CCEAACB
     Copy CRC 6CCEAACB
     Track not present in AccurateRip database
     Copy OK
Track  3
     Filename G:\FLAC\03 - Rejoice In You - Planetshakers - One - 2009 - Christian.wav
     Peak level 100.0 %
     Track quality 100.0 %
     Test CRC 09EB1131
     Copy CRC 09EB1131
     Track not present in AccurateRip database
     Copy OK
Track  4
     Filename G:\FLAC\04 - Like A Fire - Planetshakers - One - 2009 - Christian.wav
     Peak level 98.0 %
     Track quality 100.0 %
     Test CRC 3597312D
     Copy CRC 3597312D
     Track not present in AccurateRip database
     Copy OK
Track  5
     Filename G:\FLAC\05 - Lift You High - Planetshakers - One - 2009 - Christian.wav
     Peak level 100.0 %
     Track quality 99.9 %
     Test CRC 309547AC
     Copy CRC 309547AC
     Track not present in AccurateRip database
     Copy OK
Track  6
     Filename G:\FLAC\06 - Holy Spirit Come - Planetshakers - One - 2009 - Christian.wav
     Peak level 100.0 %
     Track quality 99.9 %
     Test CRC 804435F5
     Copy CRC 804435F5
     Track not present in AccurateRip database
     Copy OK
Track  7
     Filename G:\FLAC\07 - Dance Now - Planetshakers - One - 2009 - Christian.wav
     Peak level 100.0 %
     Track quality 100.0 %
     Test CRC F3333736
     Copy CRC F3333736
     Track not present in AccurateRip database
     Copy OK
Track  8
     Filename G:\FLAC\08 - You Are Good - Planetshakers - One - 2009 - Christian.wav
     Peak level 100.0 %
     Track quality 100.0 %
     Test CRC 24572D0E
     Copy CRC 24572D0E
     Track not present in AccurateRip database
     Copy OK
Track  9
     Filename G:\FLAC\09 - Wonderful Saviour - Planetshakers - One - 2009 - Christian.wav
     Peak level 99.0 %
     Track quality 100.0 %
     Test CRC D5C7230E
     Copy CRC D5C7230E
     Track not present in AccurateRip database
     Copy OK
Track 10
     Filename G:\FLAC\10 - Deeper - Planetshakers - One - 2009 - Christian.wav
     Peak level 97.8 %
     Track quality 100.0 %
     Test CRC 8D66A78F
     Copy CRC 8D66A78F
     Track not present in AccurateRip database
     Copy OK
Track 11
     Filename G:\FLAC\11 - Glory Forever - Planetshakers - One - 2009 - Christian.wav
     Peak level 100.0 %
     Track quality 100.0 %
     Test CRC 9DC535FB
     Copy CRC 9DC535FB
     Track not present in AccurateRip database
     Copy OK
Track 12
     Filename G:\FLAC\12 - Get Up (remix) - Planetshakers - One - 2009 - Christian.wav
     Peak level 100.0 %
     Track quality 100.0 %
     Test CRC E8239407
     Copy CRC E8239407
     Track not present in AccurateRip database
     Copy OK
None of the tracks are present in the AccurateRip database
No errors occurred
End of status report
Код:
REM GENRE Christian
REM DATE 2009
REM DISCID 9610640C
REM COMMENT "ExactAudioCopy v0.99pb5"
PERFORMER "Planetshakers"
TITLE "One"
FILE "01 - Get Up.flac" WAVE
  TRACK 01 AUDIO
    PERFORMER "Planetshakers"
    TITLE "Get Up"
    INDEX 01 00:00:00
FILE "02 - No Compromise.flac" WAVE
  TRACK 02 AUDIO
    PERFORMER "Planetshakers"
    TITLE "No Compromise"
    INDEX 01 00:00:00
FILE "03 - Rejoice In You.flac" WAVE
  TRACK 03 AUDIO
    PERFORMER "Planetshakers"
    TITLE "Rejoice In You"
    INDEX 01 00:00:00
FILE "04 - Like A Fire.flac" WAVE
  TRACK 04 AUDIO
    PERFORMER "Planetshakers"
    TITLE "Like A Fire"
    INDEX 01 00:00:00
FILE "05 - Lift You High.flac" WAVE
  TRACK 05 AUDIO
    PERFORMER "Planetshakers"
    TITLE "Lift You High"
    INDEX 01 00:00:00
FILE "06 - Holy Spirit Come.flac" WAVE
  TRACK 06 AUDIO
    PERFORMER "Planetshakers"
    TITLE "Holy Spirit Come"
    INDEX 01 00:00:00
FILE "07 - Dance Now.flac" WAVE
  TRACK 07 AUDIO
    PERFORMER "Planetshakers"
    TITLE "Dance Now"
    INDEX 01 00:00:00
FILE "08 - You Are Good.flac" WAVE
  TRACK 08 AUDIO
    PERFORMER "Planetshakers"
    TITLE "You Are Good"
    INDEX 01 00:00:00
FILE "09 - Wonderful Saviour.flac" WAVE
  TRACK 09 AUDIO
    PERFORMER "Planetshakers"
    TITLE "Wonderful Saviour"
    INDEX 01 00:00:00
FILE "10 - Deeper.flac" WAVE
  TRACK 10 AUDIO
    PERFORMER "Planetshakers"
    TITLE "Deeper"
    INDEX 01 00:00:00
FILE "11 - Glory Forever.flac" WAVE
  TRACK 11 AUDIO
    PERFORMER "Planetshakers"
    TITLE "Glory Forever"
    INDEX 01 00:00:00
FILE "12 - Get Up (remix).flac" WAVE
  TRACK 12 AUDIO
    PERFORMER "Planetshakers"
    TITLE "Get Up (remix)"
    INDEX 01 00:00:00
Код:
AUDIOCHECKER v2.0 beta (build 457) - by Dester - opdester@freemail.hu
~~~~~~~~~~~~~~~~~~~~~~~~~~~~~~~~~~
Started at: понедельник, 06. 02. 2012. - 10:47.23
12 files found
01 -===- G:\Music\Pop-rock\Planetshakers\2009 - One\01 - Get Up.flac
  Extracted successfully
  Conclusion: this track is CDDA with probability 100%
  Tempfile successfully deleted.
02 -===- G:\Music\Pop-rock\Planetshakers\2009 - One\02 - No Compromise.flac
  Extracted successfully
  Conclusion: this track is CDDA with probability 100%
  Tempfile successfully deleted.
03 -===- G:\Music\Pop-rock\Planetshakers\2009 - One\03 - Rejoice In You.flac
  Extracted successfully
  Conclusion: this track is CDDA with probability 100%
  Tempfile successfully deleted.
04 -===- G:\Music\Pop-rock\Planetshakers\2009 - One\04 - Like A Fire.flac
  Extracted successfully
  Conclusion: this track is CDDA with probability 100%
  Tempfile successfully deleted.
05 -===- G:\Music\Pop-rock\Planetshakers\2009 - One\05 - Lift You High.flac
  Extracted successfully
  Conclusion: this track is CDDA with probability 100%
  Tempfile successfully deleted.
06 -===- G:\Music\Pop-rock\Planetshakers\2009 - One\06 - Holy Spirit Come.flac
  Extracted successfully
  Conclusion: this track is CDDA with probability 100%
  Tempfile successfully deleted.
07 -===- G:\Music\Pop-rock\Planetshakers\2009 - One\07 - Dance Now.flac
  Extracted successfully
  Conclusion: this track is CDDA with probability 100%
  Tempfile successfully deleted.
08 -===- G:\Music\Pop-rock\Planetshakers\2009 - One\08 - You Are Good.flac
  Extracted successfully
  Conclusion: this track is CDDA with probability 100%
  Tempfile successfully deleted.
09 -===- G:\Music\Pop-rock\Planetshakers\2009 - One\09 - Wonderful Saviour.flac
  Extracted successfully
  Conclusion: this track is CDDA with probability 100%
  Tempfile successfully deleted.
10 -===- G:\Music\Pop-rock\Planetshakers\2009 - One\10 - Deeper.flac
  Extracted successfully
  Conclusion: this track is CDDA with probability 99%
  Tempfile successfully deleted.
11 -===- G:\Music\Pop-rock\Planetshakers\2009 - One\11 - Glory Forever.flac
  Extracted successfully
  Conclusion: this track is CDDA with probability 100%
  Tempfile successfully deleted.
12 -===- G:\Music\Pop-rock\Planetshakers\2009 - One\12 - Get Up (remix).flac
  Extracted successfully
  Conclusion: this track is CDDA with probability 100%
  Tempfile successfully deleted.
Finished at: понедельник, 06. 02. 2012. - 11:43.46 (operation time: 0:56.22)


Правила, инструкции, FAQ!!!
Торрент  Добавлен [26 мар 2019, 19:54] Скачать торрент Магнет ссылка
Скачать торрент
[ Размер 22.51 КБ / Просмотров 6 ]

Статус
Проверен 
 
Размер  526.74 МБ
Приватный: Нет (DHT включён)
.torrent скачан  0
 


     Отправить личное сообщение
   
Страница 1 из 1
Показать сообщения за:  Поле сортировки  
Начать новую тему Ответить на тему


Сейчас этот форум просматривают: нет зарегистрированных пользователей и гости: 0


Вы не можете начинать темы
Вы не можете отвечать на сообщения
Вы не можете редактировать свои сообщения
Вы не можете удалять свои сообщения
Вы не можете добавлять вложения

Перейти:  
cron