Начать новую тему Ответить на тему
Статистика раздачи
Размер: 497.84 МБ | Добавлен: 26 мар 2019, 19:54 | Скачали: 0
Сидеров: 0  [0 байт/сек]    Личеров: 0  [0 байт/сек]
Пред. тема | След. тема 

Автор
Сообщение

СообщениеДобавлено: 26 мар 2019, 19:54 

Ответить с цитатой 

Planetshakers - Heal Our Land
Жанр: Worship, Christian Rock
Год издания: 2012
Издатель (лейбл): Integrity Music
Страна: Australia
Аудиокодек: FLAC (*.flac)
Тип рипа: tracks+.cue
Битрейт аудио: lossless
Продолжительность: 01:08:40
Источник (релизер): jesus-torrent (Aleksey)
Наличие сканов в содержимом раздачи: нет
Треклист:
01. Supernatural (4:07)
02. Good To Me (3:58)
03. Do It Again (4:21)
04. Heal Our Land (9:28)
05. Strength Of My Life (6:43)
06. Hold On To Me (3:11)
07. Hallelujah To The Lord (6:49)
08. You Have It All (6:37)
09. Power (3:43)
10. It's You (3:40)
11. No One Like You (8:34)
12. Running To You (7:29)
Код:
Exact Audio Copy V1.0 beta 3 from 29. August 2011
EAC extraction logfile from 19. April 2012, 20:11
Planetshakers / Heal Our Land
Used drive  : HL-DT-STDVDRAM GH22NS90   Adapter: 1  ID: 0
Read mode               : Secure
Utilize accurate stream : Yes
Defeat audio cache      : No
Make use of C2 pointers : No
Read offset correction                      : 6
Overread into Lead-In and Lead-Out          : No
Fill up missing offset samples with silence : Yes
Delete leading and trailing silent blocks   : No
Null samples used in CRC calculations       : Yes
Used interface                              : Native Win32 interface for Win NT & 2000
Gap handling                                : Appended to previous track
Used output format              : User Defined Encoder
Selected bitrate                : 768 kBit/s
Quality                         : High
Add ID3 tag                     : No
Command line compressor         : C:\Program Files (x86)\Exact Audio Copy\FLAC\FLAC.EXE
Additional command line options : -6 -V -T "ARTIST=%artist%" -T "TITLE=%title%" -T "ALBUM=%albumtitle%" -T "DATE=%year%" -T "TRACKNUMBER=%tracknr%" -T "GENRE=%genre%" -T "COMMENT=%comment%" -T "BAND=%albuminterpret%" -T "ALBUMARTIST=%albuminterpret%" -T "COMPOSER=%composer%" %haslyrics%--tag-from-file=LYRICS="%lyricsfile%"%haslyrics% -T "DISCNUMBER=%cdnumber%" -T "TOTALDISCS=%totalcds%" -T "TOTALTRACKS=%numtracks%" %hascover%--picture="%coverfile%"%hascover% %source% -o %dest%
TOC of the extracted CD
     Track |   Start  |  Length  | Start sector | End sector
    ---------------------------------------------------------
        1  |  0:00.00 |  4:07.00 |         0    |    18524
        2  |  4:07.00 |  3:58.22 |     18525    |    36396
        3  |  8:05.22 |  4:21.17 |     36397    |    55988
        4  | 12:26.39 |  9:27.41 |     55989    |    98554
        5  | 21:54.05 |  6:42.58 |     98555    |   128762
        6  | 28:36.63 |  3:11.05 |    128763    |   143092
        7  | 31:47.68 |  6:49.10 |    143093    |   173777
        8  | 38:37.03 |  6:37.12 |    173778    |   203564
        9  | 45:14.15 |  3:42.53 |    203565    |   220267
       10  | 48:56.68 |  3:39.68 |    220268    |   236760
       11  | 52:36.61 |  8:34.27 |    236761    |   275337
       12  | 61:11.13 |  7:28.66 |    275338    |   309003
Track  1
     Filename C:\New folder\Planetshakers - 2012 - Heal Our Land  FLAC\01 Supernatural .wav
     Pre-gap length  0:00:02.00
     Peak level 100.0 %
     Extraction speed 2.0 X
     Track quality 99.9 %
     Test CRC D15F7431
     Copy CRC D15F7431
     Track not present in AccurateRip database
     Copy OK
Track  2
     Filename C:\New folder\Planetshakers - 2012 - Heal Our Land  FLAC\02 Good To Me .wav
     Pre-gap length  0:00:00.20
     Peak level 100.0 %
     Extraction speed 2.2 X
     Track quality 100.0 %
     Test CRC A68B6244
     Copy CRC A68B6244
     Track not present in AccurateRip database
     Copy OK
Track  3
     Filename C:\New folder\Planetshakers - 2012 - Heal Our Land  FLAC\03 Do It Again .wav
     Pre-gap length  0:00:00.10
     Peak level 100.0 %
     Extraction speed 2.4 X
     Track quality 100.0 %
     Test CRC A6455AD1
     Copy CRC A6455AD1
     Track not present in AccurateRip database
     Copy OK
Track  4
     Filename C:\New folder\Planetshakers - 2012 - Heal Our Land  FLAC\04 Heal Our Land .wav
     Pre-gap length  0:00:00.49
     Peak level 100.0 %
     Extraction speed 2.7 X
     Track quality 100.0 %
     Test CRC 0D627994
     Copy CRC 0D627994
     Track not present in AccurateRip database
     Copy OK
Track  5
     Filename C:\New folder\Planetshakers - 2012 - Heal Our Land  FLAC\05 Strength Of My Life .wav
     Pre-gap length  0:00:00.28
     Peak level 100.0 %
     Extraction speed 3.0 X
     Track quality 100.0 %
     Test CRC 243DD09A
     Copy CRC 243DD09A
     Track not present in AccurateRip database
     Copy OK
Track  6
     Filename C:\New folder\Planetshakers - 2012 - Heal Our Land  FLAC\06 Hold On To Me .wav
     Pre-gap length  0:00:00.57
     Peak level 100.0 %
     Extraction speed 3.1 X
     Track quality 100.0 %
     Test CRC E3DA88FD
     Copy CRC E3DA88FD
     Track not present in AccurateRip database
     Copy OK
Track  7
     Filename C:\New folder\Planetshakers - 2012 - Heal Our Land  FLAC\07 Hallelujah To The Lord .wav
     Pre-gap length  0:00:00.41
     Peak level 100.0 %
     Extraction speed 3.4 X
     Track quality 100.0 %
     Test CRC 9348B3C4
     Copy CRC 9348B3C4
     Track not present in AccurateRip database
     Copy OK
Track  8
     Filename C:\New folder\Planetshakers - 2012 - Heal Our Land  FLAC\08 You Have It All .wav
     Pre-gap length  0:00:01.06
     Peak level 100.0 %
     Extraction speed 3.6 X
     Track quality 100.0 %
     Test CRC 507E8493
     Copy CRC 507E8493
     Track not present in AccurateRip database
     Copy OK
Track  9
     Filename C:\New folder\Planetshakers - 2012 - Heal Our Land  FLAC\09 Power .wav
     Pre-gap length  0:00:00.13
     Peak level 100.0 %
     Extraction speed 3.7 X
     Track quality 100.0 %
     Test CRC 6676FE85
     Copy CRC 6676FE85
     Track not present in AccurateRip database
     Copy OK
Track 10
     Filename C:\New folder\Planetshakers - 2012 - Heal Our Land  FLAC\10 It's You .wav
     Pre-gap length  0:00:00.24
     Peak level 100.0 %
     Extraction speed 3.9 X
     Track quality 100.0 %
     Test CRC 54EBD053
     Copy CRC 54EBD053
     Track not present in AccurateRip database
     Copy OK
Track 11
     Filename C:\New folder\Planetshakers - 2012 - Heal Our Land  FLAC\11 No One Like You .wav
     Pre-gap length  0:00:01.04
     Peak level 100.0 %
     Extraction speed 4.0 X
     Track quality 100.0 %
     Test CRC 5642EBF8
     Copy CRC 5642EBF8
     Track not present in AccurateRip database
     Copy OK
Track 12
     Filename C:\New folder\Planetshakers - 2012 - Heal Our Land  FLAC\12 Running To You .wav
     Pre-gap length  0:00:02.73
     Peak level 100.0 %
     Extraction speed 4.2 X
     Track quality 99.9 %
     Test CRC 403A6A72
     Copy CRC 403A6A72
     Track not present in AccurateRip database
     Copy OK
None of the tracks are present in the AccurateRip database
No errors occurred
End of status report
---- CUETools DB Plugin V2.1.3
[CTDB TOCID: OVFi90MuujGx5vrHg90Gkc8bttY-] disk not present in database, Submit result: OVFi90MuujGx5vrHg90Gkc8bttY- has been uploaded
Код:
REM GENRE "Christian Rock"
REM DATE 2012
REM DISCID BF10180C
REM COMMENT "ExactAudioCopy v1.0b3"
PERFORMER "Planetshakers"
TITLE "Heal Our Land"
FILE "01 Supernatural .flac" WAVE
  TRACK 01 AUDIO
    TITLE "Supernatural"
    PERFORMER "Planetshakers"
    INDEX 01 00:00:00
  TRACK 02 AUDIO
    TITLE "Good To Me"
    PERFORMER "Planetshakers"
    INDEX 00 04:06:60
FILE "02 Good To Me .flac" WAVE
    INDEX 01 00:00:00
  TRACK 03 AUDIO
    TITLE "Do It Again"
    PERFORMER "Planetshakers"
    INDEX 00 03:58:14
FILE "03 Do It Again .flac" WAVE
    INDEX 01 00:00:00
  TRACK 04 AUDIO
    TITLE "Heal Our Land"
    PERFORMER "Planetshakers"
    INDEX 00 04:20:55
FILE "04 Heal Our Land .flac" WAVE
    INDEX 01 00:00:00
  TRACK 05 AUDIO
    TITLE "Strength Of My Life"
    PERFORMER "Planetshakers"
    INDEX 00 09:27:20
FILE "05 Strength Of My Life .flac" WAVE
    INDEX 01 00:00:00
  TRACK 06 AUDIO
    TITLE "Hold On To Me"
    PERFORMER "Planetshakers"
    INDEX 00 06:42:15
FILE "06 Hold On To Me .flac" WAVE
    INDEX 01 00:00:00
  TRACK 07 AUDIO
    TITLE "Hallelujah To The Lord"
    PERFORMER "Planetshakers"
    INDEX 00 03:10:49
FILE "07 Hallelujah To The Lord .flac" WAVE
    INDEX 01 00:00:00
  TRACK 08 AUDIO
    TITLE "You Have It All"
    PERFORMER "Planetshakers"
    INDEX 00 06:48:05
FILE "08 You Have It All .flac" WAVE
    INDEX 01 00:00:00
  TRACK 09 AUDIO
    TITLE "Power"
    PERFORMER "Planetshakers"
    INDEX 00 06:37:02
FILE "09 Power .flac" WAVE
    INDEX 01 00:00:00
  TRACK 10 AUDIO
    TITLE "It's You"
    PERFORMER "Planetshakers"
    INDEX 00 03:42:35
FILE "10 It's You .flac" WAVE
    INDEX 01 00:00:00
  TRACK 11 AUDIO
    TITLE "No One Like You"
    PERFORMER "Planetshakers"
    INDEX 00 03:38:65
FILE "11 No One Like You .flac" WAVE
    INDEX 01 00:00:00
  TRACK 12 AUDIO
    TITLE "Running To You"
    PERFORMER "Planetshakers"
    INDEX 00 08:31:47
FILE "12 Running To You .flac" WAVE
    INDEX 01 00:00:00
Код:
AUDIOCHECKER v2.0 beta (build 457) - by Dester - opdester@freemail.hu
~~~~~~~~~~~~~~~~~~~~~~~~~~~~~~~~~~
-=== DO NOT EDIT THIS FILE! ===-
Path: ...\2012 - Heal Our Land
01 -=- 01 Supernatural .flac -=- CDDA (100%)
02 -=- 02 Good To Me .flac -=- CDDA (100%)
03 -=- 03 Do It Again .flac -=- CDDA (100%)
04 -=- 04 Heal Our Land .flac -=- CDDA (99%)
05 -=- 05 Strength Of My Life .flac -=- CDDA (100%)
06 -=- 06 Hold On To Me .flac -=- CDDA (100%)
07 -=- 07 Hallelujah To The Lord .flac -=- CDDA (100%)
08 -=- 08 You Have It All .flac -=- CDDA (100%)
09 -=- 09 Power .flac -=- CDDA (100%)
10 -=- 10 It's You .flac -=- CDDA (100%)
11 -=- 11 No One Like You .flac -=- CDDA (100%)
12 -=- 12 Running To You .flac -=- CDDA (100%)
Summary 99,92% CDDA
70967892


Правила, инструкции, FAQ!!!
Торрент  Добавлен [26 мар 2019, 19:54] Скачать торрент Магнет ссылка
Скачать торрент
[ Размер 40.93 КБ / Просмотров 5 ]

Статус
Проверен 
 
Размер  497.84 МБ
Приватный: Нет (DHT включён)
.torrent скачан  0
 


     Отправить личное сообщение
   
Страница 1 из 1
Показать сообщения за:  Поле сортировки  
Начать новую тему Ответить на тему


Сейчас этот форум просматривают: нет зарегистрированных пользователей и гости: 0


Вы не можете начинать темы
Вы не можете отвечать на сообщения
Вы не можете редактировать свои сообщения
Вы не можете удалять свои сообщения
Вы не можете добавлять вложения

Перейти:  
cron