Начать новую тему Ответить на тему
Статистика раздачи
Размер: 256.34 МБ | Добавлен: 26 мар 2019, 19:56 | Скачали: 0
Сидеров: 1  [0 байт/сек]    Личеров: 0  [0 байт/сек]
Пред. тема | След. тема 

Автор
Сообщение

СообщениеДобавлено: 26 мар 2019, 19:56 

Ответить с цитатой 

Jim Schmidt / Somethin' Right
Жанр: Westcoast / Soft Rock
Страна-производитель диска: Japan
Год издания: 2010
Издатель (лейбл): Creole Stream Music
Номер по каталогу: CSMCD-310
Страна: USA
Аудиокодек: FLAC (*.flac)
Тип рипа: tracks+.cue
Битрейт аудио: lossless
Продолжительность: 37:37
Источник (релизер): stoichie
Наличие сканов в содержимом раздачи: да
Треклист:
01. Love Has Taken It All Away
02. Somethin' Right
03. Not Your Love Alone
04. Within His Joy
05. The Person That I Really Want To Be
06. Serious
07. The Eye Of The Storm
08. Promise Land
09. Surer Of Myself
10. Destiny
Код:
Exact Audio Copy V1.0 beta 3 from 29. August 2011
EAC extraction logfile from 10. March 2013, 19:07
Jim Schmidt / Somethin' Right
Used drive  : HL-DT-STDVDRAM GT51N   Adapter: 0  ID: 1
Read mode               : Secure
Utilize accurate stream : Yes
Defeat audio cache      : Yes
Make use of C2 pointers : No
Read offset correction                      : 103
Overread into Lead-In and Lead-Out          : No
Fill up missing offset samples with silence : Yes
Delete leading and trailing silent blocks   : No
Null samples used in CRC calculations       : Yes
Used interface                              : Native Win32 interface for Win NT & 2000
Gap handling                                : Appended to previous track
Used output format              : User Defined Encoder
Selected bitrate                : 1024 kBit/s
Quality                         : High
Add ID3 tag                     : No
Command line compressor         : C:\Program Files (x86)\FLAC\flac.exe
Additional command line options : -8 -V -T "ARTIST=%artist%" -T "TITLE=%title%" -T "ALBUM=%albumtitle%" -T "DATE=%year%" -T "TRACKNUMBER=%tracknr%" -T "GENRE=%genre%" -T "PERFORMER=%albuminterpret%" -T "COMPOSER=%composer%" %haslyrics%--tag-from-file=LYRICS="%lyricsfile%"%haslyrics% -T "ALBUMARTIST=%albumartist%" -T "DISCNUMBER=%cdnumber%" -T "TOTALDISCS=%totalcds%" -T "TOTALTRACKS=%numtracks%" -T "COMMENT=%comment%" %source% -o %dest%
TOC of the extracted CD
     Track |   Start  |  Length  | Start sector | End sector
    ---------------------------------------------------------
        1  |  0:00.00 |  3:34.23 |         0    |    16072
        2  |  3:34.23 |  3:44.12 |     16073    |    32884
        3  |  7:18.35 |  4:05.50 |     32885    |    51309
        4  | 11:24.10 |  3:16.13 |     51310    |    66022
        5  | 14:40.23 |  3:56.24 |     66023    |    83746
        6  | 18:36.47 |  4:07.12 |     83747    |   102283
        7  | 22:43.59 |  3:42.48 |    102284    |   118981
        8  | 26:26.32 |  4:17.47 |    118982    |   138303
        9  | 30:44.04 |  3:08.52 |    138304    |   152455
       10  | 33:52.56 |  3:44.65 |    152456    |   169320
Track  1
     Filename C:\EAC Rips\Jim Schmidt - Somethin' Right (1983)\01 Love Has Taken it All Away.wav
     Pre-gap length  0:00:02.00
     Peak level 100.0 %
     Extraction speed 1.2 X
     Track quality 100.0 %
     Test CRC 01F01A9B
     Copy CRC 01F01A9B
     Track not present in AccurateRip database
     Copy OK
Track  2
     Filename C:\EAC Rips\Jim Schmidt - Somethin' Right (1983)\02 Somethin' Right.wav
     Pre-gap length  0:00:02.00
     Peak level 100.0 %
     Extraction speed 2.1 X
     Track quality 100.0 %
     Test CRC 3C4FEFB8
     Copy CRC 3C4FEFB8
     Track not present in AccurateRip database
     Copy OK
Track  3
     Filename C:\EAC Rips\Jim Schmidt - Somethin' Right (1983)\03 Not Your Love Alone.wav
     Pre-gap length  0:00:02.00
     Peak level 99.9 %
     Extraction speed 2.1 X
     Track quality 99.9 %
     Test CRC DAD6FCCF
     Copy CRC DAD6FCCF
     Track not present in AccurateRip database
     Copy OK
Track  4
     Filename C:\EAC Rips\Jim Schmidt - Somethin' Right (1983)\04 Within His Joy.wav
     Pre-gap length  0:00:02.00
     Peak level 100.0 %
     Extraction speed 2.1 X
     Track quality 99.9 %
     Test CRC 26377B78
     Copy CRC 26377B78
     Track not present in AccurateRip database
     Copy OK
Track  5
     Filename C:\EAC Rips\Jim Schmidt - Somethin' Right (1983)\05 The Person That I Really Want To Be.wav
     Pre-gap length  0:00:02.00
     Peak level 64.7 %
     Extraction speed 2.7 X
     Track quality 100.0 %
     Test CRC 7E31B6BF
     Copy CRC 7E31B6BF
     Track not present in AccurateRip database
     Copy OK
Track  6
     Filename C:\EAC Rips\Jim Schmidt - Somethin' Right (1983)\06 Serious.wav
     Pre-gap length  0:00:02.00
     Peak level 100.0 %
     Extraction speed 2.9 X
     Track quality 100.0 %
     Test CRC 9540A660
     Copy CRC 9540A660
     Track not present in AccurateRip database
     Copy OK
Track  7
     Filename C:\EAC Rips\Jim Schmidt - Somethin' Right (1983)\07 The Eye Of The Storm.wav
     Pre-gap length  0:00:02.00
     Peak level 100.0 %
     Extraction speed 3.0 X
     Track quality 100.0 %
     Test CRC 815CBAF7
     Copy CRC 815CBAF7
     Track not present in AccurateRip database
     Copy OK
Track  8
     Filename C:\EAC Rips\Jim Schmidt - Somethin' Right (1983)\08 Promised Land.wav
     Pre-gap length  0:00:02.00
     Peak level 93.0 %
     Extraction speed 2.8 X
     Track quality 99.9 %
     Test CRC 49DEDB05
     Copy CRC 49DEDB05
     Track not present in AccurateRip database
     Copy OK
Track  9
     Filename C:\EAC Rips\Jim Schmidt - Somethin' Right (1983)\09 Surer Of Myself.wav
     Pre-gap length  0:00:02.00
     Peak level 100.0 %
     Extraction speed 3.2 X
     Track quality 100.0 %
     Test CRC FA09A2A8
     Copy CRC FA09A2A8
     Track not present in AccurateRip database
     Copy OK
Track 10
     Filename C:\EAC Rips\Jim Schmidt - Somethin' Right (1983)\10 Destiny.wav
     Pre-gap length  0:00:02.00
     Peak level 100.0 %
     Extraction speed 3.4 X
     Track quality 100.0 %
     Test CRC 7CB92BD2
     Copy CRC 7CB92BD2
     Track not present in AccurateRip database
     Copy OK
None of the tracks are present in the AccurateRip database
No errors occurred
End of status report
---- CUETools DB Plugin V2.1.3
[CTDB TOCID: HigMO9G1xsdIuNh2CsArTZKZYu4-] found, Submit result: already submitted
[0ac3cd28] (1/1) Accurately ripped
==== Log checksum 663945DC82B702F10C129DC2D698B5940091DF3E6EE26762CB9D66E848B7E820 ====
Код:
REM GENRE "Funk / Soul, Gospel, Rock"
REM DATE 1983
REM DISCID 8508D10A
REM COMMENT "ExactAudioCopy v1.0b3"
PERFORMER "Jim Schmidt"
TITLE "Somethin' Right"
FILE "01 Love Has Taken it All Away.wav" WAVE
  TRACK 01 AUDIO
    TITLE "Love Has Taken it All Away"
    PERFORMER "Jim Schmidt"
    INDEX 01 00:00:00
  TRACK 02 AUDIO
    TITLE "Somethin' Right"
    PERFORMER "Jim Schmidt"
    INDEX 00 03:32:23
FILE "02 Somethin' Right.wav" WAVE
    INDEX 01 00:00:00
  TRACK 03 AUDIO
    TITLE "Not Your Love Alone"
    PERFORMER "Jim Schmidt"
    INDEX 00 03:42:12
FILE "03 Not Your Love Alone.wav" WAVE
    INDEX 01 00:00:00
  TRACK 04 AUDIO
    TITLE "Within His Joy"
    PERFORMER "Jim Schmidt"
    INDEX 00 04:03:50
FILE "04 Within His Joy.wav" WAVE
    INDEX 01 00:00:00
  TRACK 05 AUDIO
    TITLE "The Person That I Really Want To Be"
    PERFORMER "Jim Schmidt"
    INDEX 00 03:14:13
FILE "05 The Person That I Really Want To Be.wav" WAVE
    INDEX 01 00:00:00
  TRACK 06 AUDIO
    TITLE "Serious"
    PERFORMER "Jim Schmidt"
    INDEX 00 03:54:24
FILE "06 Serious.wav" WAVE
    INDEX 01 00:00:00
  TRACK 07 AUDIO
    TITLE "The Eye Of The Storm"
    PERFORMER "Jim Schmidt"
    INDEX 00 04:05:12
FILE "07 The Eye Of The Storm.wav" WAVE
    INDEX 01 00:00:00
  TRACK 08 AUDIO
    TITLE "Promised Land"
    PERFORMER "Jim Schmidt"
    INDEX 00 03:40:48
FILE "08 Promised Land.wav" WAVE
    INDEX 01 00:00:00
  TRACK 09 AUDIO
    TITLE "Surer Of Myself"
    PERFORMER "Jim Schmidt"
    INDEX 00 04:15:47
FILE "09 Surer Of Myself.wav" WAVE
    INDEX 01 00:00:00
  TRACK 10 AUDIO
    TITLE "Destiny"
    PERFORMER "Jim Schmidt"
    INDEX 00 03:06:52
FILE "10 Destiny.wav" WAVE
    INDEX 01 00:00:00
Drums: John Ferraro
Bass: Leon Gaer
Keyboards, Guitars & Percussion: David Diggs
Guitars: Paul Jackson, Jr.
Background Vocals: Richard Page, Steve George and Jim Schmidt
Trumpets, Flugelhorns: Danny Ackerman, Charlie Davis and Terry Winch
Trombone: Ernie Carlson
Saxes, Flute: David Boruff
Acoustic Guitar on "Surer Of Myself": Roby Duke
Правила, инструкции, FAQ!!!
Торрент  Добавлен [26 мар 2019, 19:56] Скачать торрент Магнет ссылка
Скачать торрент
[ Размер 22.23 КБ / Просмотров 10 ]

Статус
Проверен 
 
Размер  256.34 МБ
Приватный: Нет (DHT включён)
.torrent скачан  0
 


     Отправить личное сообщение
   
Страница 1 из 1
Показать сообщения за:  Поле сортировки  
Начать новую тему Ответить на тему


Сейчас этот форум просматривают: нет зарегистрированных пользователей и гости: 0


Вы не можете начинать темы
Вы не можете отвечать на сообщения
Вы не можете редактировать свои сообщения
Вы не можете удалять свои сообщения
Вы не можете добавлять вложения

Перейти:  
cron