Начать новую тему Ответить на тему
Статистика раздачи
Размер: 206.4 МБ | Добавлен: 26 мар 2019, 20:38 | Скачали: 0
Сидеров: 0  [0 байт/сек]    Личеров: 1  [0 байт/сек]
Пред. тема | След. тема 

Автор
Сообщение

СообщениеДобавлено: 26 мар 2019, 20:38 

Ответить с цитатой 

Jess Roden / Stonechaser
Жанр: Westcoast / Soft Rock
Страна-производитель диска: Japan
Год издания: 2010
Издатель (лейбл): Universal
Номер по каталогу: 0563303
Страна: UK
Аудиокодек: FLAC (*.flac)
Тип рипа: tracks+.cue
Битрейт аудио: lossless
Продолжительность: 34:20
Источник (релизер): coron
Наличие сканов в содержимом раздачи: нет
Треклист:
01. Prime Time Love
02. Deeper In Love
03. Brand New Start
04. Believe In Me
05. Bird Of Harlem
06. If Ever You Should Change Your Mind
07. Loving You
08. One World, One People
Код:
Exact Audio Copy V1.0 beta 2 from 29. April 2011
EAC extraction logfile from 24. July 2011, 22:36
Jess Roden / Stonechaser (2010 Japan Remastered)
Used drive  : PIONEER DVD-RW  DVR-116L   Adapter: 3  ID: 0
Read mode               : Secure
Utilize accurate stream : Yes
Defeat audio cache      : Yes
Make use of C2 pointers : No
Read offset correction                      : 96
Overread into Lead-In and Lead-Out          : No
Fill up missing offset samples with silence : Yes
Delete leading and trailing silent blocks   : No
Null samples used in CRC calculations       : Yes
Used interface                              : Native Win32 interface for Win NT & 2000
Gap handling                                : Appended to previous track
Used output format              : User Defined Encoder
Selected bitrate                : 1024 kBit/s
Quality                         : High
Add ID3 tag                     : No
Command line compressor         : C:\Program Files\Exact Audio Copy\Flac\flac.exe
Additional command line options : -8 -V -T "ARTIST=%artist%" -T "TITLE=%title%" -T "ALBUM=%albumtitle%" -T "DATE=%year%" -T "TRACKNUMBER=%tracknr%" -T "GENRE=%genre%" -T "PERFORMER=%albuminterpret%" -T "COMPOSER=%composer%" %haslyrics%--tag-from-file=LYRICS
TOC of the extracted CD
     Track |   Start  |  Length  | Start sector | End sector
    ---------------------------------------------------------
        1  |  0:00.00 |  3:38.43 |         0    |    16392
        2  |  3:38.43 |  2:59.32 |     16393    |    29849
        3  |  6:38.00 |  4:44.45 |     29850    |    51194
        4  | 11:22.45 |  4:40.45 |     51195    |    72239
        5  | 16:03.15 |  5:33.69 |     72240    |    97283
        6  | 21:37.09 |  3:29.12 |     97284    |   112970
        7  | 25:06.21 |  3:35.26 |    112971    |   129121
        8  | 28:41.47 |  5:37.58 |    129122    |   154454
Track  1
     Filename C:\EACRips\Jess Roden - Stonechaser - 1980 (2010 Remastered) [FLAC]\01 Prime Time Lover.wav
     Pre-gap length  0:00:02.00
     Peak level 96.6 %
     Extraction speed 4.3 X
     Track quality 100.0 %
     Test CRC DA1CE5C0
     Copy CRC DA1CE5C0
     Track not present in AccurateRip database
     Copy OK
Track  2
     Filename C:\EACRips\Jess Roden - Stonechaser - 1980 (2010 Remastered) [FLAC]\02 Deeper In Love.wav
     Pre-gap length  0:00:04.89
     Peak level 96.6 %
     Extraction speed 4.6 X
     Track quality 100.0 %
     Test CRC 6A47CB5B
     Copy CRC 6A47CB5B
     Track not present in AccurateRip database
     Copy OK
Track  3
     Filename C:\EACRips\Jess Roden - Stonechaser - 1980 (2010 Remastered) [FLAC]\03 Brand New Start.wav
     Pre-gap length  0:00:03.68
     Peak level 96.6 %
     Extraction speed 5.3 X
     Track quality 100.0 %
     Test CRC A6D4FC18
     Copy CRC A6D4FC18
     Track not present in AccurateRip database
     Copy OK
Track  4
     Filename C:\EACRips\Jess Roden - Stonechaser - 1980 (2010 Remastered) [FLAC]\04 Believe In Me.wav
     Pre-gap length  0:00:01.28
     Peak level 96.6 %
     Extraction speed 5.8 X
     Track quality 100.0 %
     Test CRC E05A728B
     Copy CRC E05A728B
     Track not present in AccurateRip database
     Copy OK
Track  5
     Filename C:\EACRips\Jess Roden - Stonechaser - 1980 (2010 Remastered) [FLAC]\05 Bird Of Harlem.wav
     Pre-gap length  0:00:03.60
     Peak level 98.8 %
     Extraction speed 6.3 X
     Track quality 100.0 %
     Test CRC 7FEE5B4A
     Copy CRC 7FEE5B4A
     Track not present in AccurateRip database
     Copy OK
Track  6
     Filename C:\EACRips\Jess Roden - Stonechaser - 1980 (2010 Remastered) [FLAC]\06 If Ever You Should Change Your Mind.wav
     Pre-gap length  0:00:03.05
     Peak level 98.8 %
     Extraction speed 5.5 X
     Track quality 99.9 %
     Test CRC 68A23184
     Copy CRC 68A23184
     Track not present in AccurateRip database
     Copy OK
Track  7
     Filename C:\EACRips\Jess Roden - Stonechaser - 1980 (2010 Remastered) [FLAC]\07 Loving You.wav
     Pre-gap length  0:00:03.86
     Peak level 98.8 %
     Extraction speed 6.6 X
     Track quality 100.0 %
     Test CRC 209F9C4A
     Copy CRC 209F9C4A
     Track not present in AccurateRip database
     Copy OK
Track  8
     Filename C:\EACRips\Jess Roden - Stonechaser - 1980 (2010 Remastered) [FLAC]\08 One World, One People.wav
     Pre-gap length  0:00:02.76
     Peak level 98.8 %
     Extraction speed 7.3 X
     Track quality 100.0 %
     Test CRC A60D8746
     Copy CRC A60D8746
     Track not present in AccurateRip database
     Copy OK
None of the tracks are present in the AccurateRip database
No errors occurred
End of status report
==== Log checksum 85545F9EC5901EFD25A0BE281568303B13A091D724CCE479ED98FD610C807D6C ====
Код:
REM GENRE AOR
REM DATE 1980
REM DISCID 60080B08
REM COMMENT "ExactAudioCopy v1.0b2"
PERFORMER "Jess Roden"
TITLE "Stonechaser (2010 Japan Remastered)"
FILE "01 Prime Time Lover.wav" WAVE
  TRACK 01 AUDIO
    TITLE "Prime Time Lover"
    PERFORMER "Jess Roden"
    INDEX 01 00:00:00
  TRACK 02 AUDIO
    TITLE "Deeper In Love"
    PERFORMER "Jess Roden"
    INDEX 00 03:33:51
FILE "02 Deeper In Love.wav" WAVE
    INDEX 01 00:00:00
  TRACK 03 AUDIO
    TITLE "Brand New Start"
    PERFORMER "Jess Roden"
    INDEX 00 02:55:56
FILE "03 Brand New Start.wav" WAVE
    INDEX 01 00:00:00
  TRACK 04 AUDIO
    TITLE "Believe In Me"
    PERFORMER "Jess Roden"
    INDEX 00 04:43:24
FILE "04 Believe In Me.wav" WAVE
    INDEX 01 00:00:00
  TRACK 05 AUDIO
    TITLE "Bird Of Harlem"
    PERFORMER "Jess Roden"
    INDEX 00 04:37:00
FILE "05 Bird Of Harlem.wav" WAVE
    INDEX 01 00:00:00
  TRACK 06 AUDIO
    TITLE "If Ever You Should Change Your Mind"
    PERFORMER "Jess Roden"
    INDEX 00 05:30:65
FILE "06 If Ever You Should Change Your Mind.wav" WAVE
    INDEX 01 00:00:00
  TRACK 07 AUDIO
    TITLE "Loving You"
    PERFORMER "Jess Roden"
    INDEX 00 03:25:22
FILE "07 Loving You.wav" WAVE
    INDEX 01 00:00:00
  TRACK 08 AUDIO
    TITLE "One World, One People"
    PERFORMER "Jess Roden"
    INDEX 00 03:32:44
FILE "08 One World, One People.wav" WAVE
    INDEX 01 00:00:00
Keyboards : Rob Mounsey, Leon Pendarvis, Pat Rebillot & George T. Clinton
Guitars : Jeff Mironov, Jeff Layton, Cliff Morris, David Landau & John Cartwright
Drums : Chris Parker, Richard Crooks & Peter Bunetta
Bass : Neil Jason, Anthony Jackson, John Cartwright & Rick Chudacoff
Percussion : Erroll Bennett, Jess Roden, Arno Lucas & Leon Pendarvis
Vocals : Jess Roden, Jaki Whitren, Janice Pendarvis, Luther Vandross, Joshie Armstead, Chandra Armstead, Leon Pendarvis, Zachary Sanders & Barbara Massey
Правила, инструкции, FAQ!!!
Торрент  Добавлен [26 мар 2019, 20:38] Скачать торрент Магнет ссылка
Скачать торрент
[ Размер 33.96 КБ / Просмотров 1 ]

Статус
Проверен 
 
Размер  206.4 МБ
Приватный: Нет (DHT включён)
.torrent скачан  0
 


     Отправить личное сообщение
   
Страница 1 из 1
Показать сообщения за:  Поле сортировки  
Начать новую тему Ответить на тему


Сейчас этот форум просматривают: нет зарегистрированных пользователей и гости: 0


Вы не можете начинать темы
Вы не можете отвечать на сообщения
Вы не можете редактировать свои сообщения
Вы не можете удалять свои сообщения
Вы не можете добавлять вложения

Перейти:  
cron