Начать новую тему Ответить на тему
Статистика раздачи
Размер: 40.58 ГБ | Добавлен: 05 июн 2020, 23:22 | Скачали: 0
Сидеров: 1  [0 байт/сек]    Личеров: 0  [0 байт/сек]
Пред. тема | След. тема 

Автор
Сообщение

СообщениеДобавлено: 05 июн 2020, 23:22 

Ответить с цитатой 

Wagner: Rienzi. Der Letzte Der Tribunen / Рихард Вагнер: "Риенци"
Год выпуска: 2010
Жанр: опера
Продолжительность: 02:34:54
Режиссер: Philipp Stölzl.
Дирижер: Sebastain Lang-Lessing.
Оркестр и хор: Deutsche Oper Berlin.
В ролях: Torsten Kerl (Rienzi), Camilla Nylund (Irene), Ante Jerkunica (Steffano Colonna), Kate Aldrich (Adriano), Krzysztof Szumanski (Paolo Orsini), Lenus Carlson (Cardinal Orvieto), Clemens Bieber (v), Stephen Bronk (Cecco del Vecchio), Gernot Frischling (Rienzi Stand-in), Chorus and Orchestra of the Deutsche Oper Berlin
Описание: Опера в пяти действиях; либретто автора по роману Э. Булвер-Литтона "Риенци, последний из римских трибунов".
Премьера: Дрезден, 20 октября 1842 года; на русской сцене - Петербург, Мариинский театр, 22 октября 1879 года, под управлением Э. Направника.
Качество: Blu-Ray (BD-50 Dual-Layer Disc).
Контейнер: BDMV.
Видео: 23963 kbps / 1080i / 29,970 fps / 16:9 / High Profile 4.1
Аудио #1: DTS-HD Master Audio / German / 3301 kbps / 5.1 / 48 kHz / 24-bit (DTS Core: 5.1 / 48 kHz / 1509 kbps / 24-bit)
Аудио #2: LPCM Audio / German / 2304 kbps / 2.0 / 48 kHz / 24-bit.
Русские субтитры: нет.
Субтитры: английские, французские, немецкие, итальянские, японские, испанские.
Действующие лица:
Кола Риенци, папский нотариус (тенор), Ирена, его сестра (сопрано), Стефаний Колонна (бас), Адриано, его сын (меццо-сопрано), Паоло Орсини, патриций (бас), Раймонд, папский легат (бас), Барончелло, крестьянин (тенор), Чекко, крестьянин (бас).
Действие происходит в Риме в XIV веке.
Релиз от:
Disc Title:
Disc Size: 43 572 968 756 bytes
Protection: AACS
BD-Java: No
BDInfo: 0.5.3
Notes:
BDINFO HOME:
Cinema Squid
http://www.cinemasquid.com/blu-ray/tools/bdinfo
INCLUDES FORUMS REPORT FOR:
AVS Forum Blu-ray Audio and Video Specifications Thread
http://www.avsforum.com/avs-vb/showthread.php?t=1155731
********************
PLAYLIST: 00000.MPLS
********************
<--- BEGIN FORUMS PASTE --->Код:
Код:
                                                                                Total   Video
Title                                                           Codec   Length  Movie Size      Disc Size       Bitrate Bitrate Main Audio Track                          Secondary Audio Track
-----                                                           ------  ------- --------------  --------------  ------- ------- ------------------                        ---------------------
00000.MPLS                                                      AVC     2:34:54 36 367 411 200  43 572 968 756  31,30   23,96   DTS-HD Master 5.1 3301Kbps (48kHz/24-bit) LPCM 2.0 2304Kbps (48kHz/24-bit)

Код:
Код:
DISC INFO:
Disc Title:
Disc Size:      43 572 968 756 bytes
Protection:     AACS
BD-Java:        No
BDInfo:         0.5.3
PLAYLIST REPORT:
Name:                   00000.MPLS
Length:                 2:34:54 (h:m:s)
Size:                   36 367 411 200 bytes
Total Bitrate:          31,30 Mbps
VIDEO:
Codec                   Bitrate             Description
-----                   -------             -----------
MPEG-4 AVC Video        23963 kbps          1080i / 29,970 fps / 16:9 / High Profile 4.1
AUDIO:
Codec                           Language        Bitrate         Description
-----                           --------        -------         -----------
DTS-HD Master Audio             German          3301 kbps       5.1 / 48 kHz / 3301 kbps / 24-bit (DTS Core: 5.1 / 48 kHz / 1509 kbps / 24-bit)
LPCM Audio                      German          2304 kbps       2.0 / 48 kHz / 2304 kbps / 24-bit
SUBTITLES:
Codec                           Language        Bitrate         Description
-----                           --------        -------         -----------
Presentation Graphics           English         13,385 kbps
Presentation Graphics           French          13,375 kbps
Presentation Graphics           German          13,166 kbps
Presentation Graphics           Italian         12,604 kbps
Presentation Graphics           Japanese        10,088 kbps
Presentation Graphics           Spanish         12,222 kbps
FILES:
Name            Time In         Length          Size            Total Bitrate
----            -------         ------          ----            -------------
00000.M2TS      0:00:00.000     1:30:53.448     21 915 967 488  32 150
00002.M2TS      1:30:53.448     1:03:46.823     14 450 319 360  30 208
00006.M2TS      2:34:40.271     0:00:14.047     1 112 064       633
00005.M2TS      2:34:54.318     0:00:00.333     12 288          295
CHAPTERS:
Number          Time In         Length          Avg Video Rate  Max 1-Sec Rate  Max 1-Sec Time  Max 5-Sec Rate  Max 5-Sec Time  Max 10Sec Rate  Max 10Sec Time  Avg Frame Size  Max Frame Size  Max Frame Time
------          -------         ------          --------------  --------------  --------------  --------------  --------------  --------------  --------------  --------------  --------------  --------------
1               0:00:00.000     0:01:23.283     1 238 kbps      4 105 kbps      00:00:18.218    2 642 kbps      00:00:17.917    2 305 kbps      00:00:18.284    5 163 bytes     71 683 bytes    00:00:20.820
2               0:01:23.283     0:13:01.647     23 478 kbps     40 096 kbps     00:07:45.865    32 512 kbps     00:03:34.948    31 422 kbps     00:03:35.548    97 922 bytes    446 284 bytes   00:03:14.127
3               0:14:24.930     0:12:01.153     25 591 kbps     36 435 kbps     00:25:17.148    31 106 kbps     00:25:13.144    30 300 kbps     00:25:08.340    106 734 bytes   433 254 bytes   00:24:32.838
4               0:26:26.084     0:08:00.379     23 937 kbps     32 622 kbps     00:30:03.468    28 220 kbps     00:29:52.891    27 202 kbps     00:27:39.691    99 837 bytes    428 541 bytes   00:28:04.716
5               0:34:26.464     0:05:44.277     24 636 kbps     31 858 kbps     00:35:14.345    28 144 kbps     00:37:33.784    27 321 kbps     00:37:31.082    102 751 bytes   374 162 bytes   00:38:21.065
6               0:40:10.741     0:14:32.104     25 618 kbps     34 409 kbps     00:40:58.622    32 271 kbps     00:40:45.543    31 839 kbps     00:40:45.543    106 850 bytes   430 482 bytes   00:46:59.249
7               0:54:42.846     0:02:11.798     20 719 kbps     28 247 kbps     00:56:51.307    26 386 kbps     00:56:28.051    25 999 kbps     00:56:26.249    86 416 bytes    363 940 bytes   00:56:47.203
8               0:56:54.644     0:06:57.817     23 848 kbps     33 263 kbps     01:03:35.144    28 420 kbps     00:59:35.672    27 285 kbps     01:02:59.308    99 465 bytes    422 676 bytes   01:03:35.211
9               1:03:52.461     0:07:54.240     24 132 kbps     36 727 kbps     01:05:43.172    31 259 kbps     01:05:40.636    29 054 kbps     01:05:34.797    100 650 bytes   443 279 bytes   01:04:28.130
10              1:11:46.702     0:19:06.745     23 988 kbps     35 900 kbps     01:30:17.612    33 151 kbps     01:30:14.542    31 137 kbps     01:30:11.439    100 049 bytes   441 640 bytes   01:26:39.661
11              1:30:53.448     0:03:55.868     24 113 kbps     34 138 kbps     01:33:32.006    30 392 kbps     01:33:32.006    29 318 kbps     01:31:50.204    100 570 bytes   451 365 bytes   01:31:14.035
12              1:34:49.316     0:08:47.493     26 029 kbps     36 711 kbps     01:43:21.929    32 699 kbps     01:43:18.058    31 086 kbps     01:42:07.454    108 564 bytes   424 564 bytes   01:41:21.708
13              1:43:36.810     0:11:30.689     22 506 kbps     34 343 kbps     01:43:40.681    31 242 kbps     01:43:36.810    28 984 kbps     01:46:11.965    93 867 bytes    432 834 bytes   01:55:00.927
14              1:55:07.500     0:04:10.984     21 674 kbps     30 334 kbps     01:56:17.904    28 472 kbps     01:56:17.904    25 757 kbps     01:56:17.870    90 397 bytes    346 283 bytes   01:58:51.891
15              1:59:18.484     0:08:32.545     23 944 kbps     35 127 kbps     02:02:15.127    30 666 kbps     02:02:15.127    29 728 kbps     02:03:27.400    99 868 bytes    470 849 bytes   02:02:15.194
16              2:07:51.030     0:04:19.726     23 140 kbps     32 169 kbps     02:10:41.834    27 487 kbps     02:10:39.431    26 526 kbps     02:10:35.627    96 514 bytes    362 240 bytes   02:11:27.713
17              2:12:10.756     0:06:10.636     23 106 kbps     31 134 kbps     02:17:42.454    28 183 kbps     02:17:38.450    27 215 kbps     02:17:33.578    96 373 bytes    386 480 bytes   02:17:05.750
18              2:18:21.393     0:05:14.647     23 996 kbps     32 057 kbps     02:19:30.895    28 391 kbps     02:22:23.735    27 687 kbps     02:19:30.628    100 084 bytes   422 868 bytes   02:22:23.835
19              2:23:36.040     0:02:56.409     24 878 kbps     34 103 kbps     02:26:26.444    31 855 kbps     02:26:26.410    29 612 kbps     02:26:21.839    103 761 bytes   441 570 bytes   02:26:25.810
20              2:26:32.450     0:03:36.015     25 137 kbps     36 370 kbps     02:26:35.019    29 257 kbps     02:27:57.668    27 957 kbps     02:27:57.668    104 842 bytes   448 097 bytes   02:27:57.702
21              2:30:08.466     0:04:46.185     25 256 kbps     36 526 kbps     02:31:13.097    31 356 kbps     02:31:08.526    30 829 kbps     02:32:47.124    105 352 bytes   434 820 bytes   02:32:24.835
STREAM DIAGNOSTICS:
File            PID             Type            Codec           Language                Seconds                 Bitrate                 Bytes           Packets
----            ---             ----            -----           --------                --------------          --------------          -------------   -----
00000.M2TS      4113 (0x1011)   0x1B            AVC                                     5453,381                23 999                  16 359 670 478  89 006 948
00000.M2TS      4352 (0x1100)   0x80            LPCM            deu (German)            5453,381                2 310                   1 574 956 360   8 725 520
00000.M2TS      4353 (0x1101)   0x86            DTS-HD MA       deu (German)            5453,381                4 066                   2 771 819 192   15 913 773
00000.M2TS      4608 (0x1200)   0x90            PGS             deu (German)            5453,381                14                      9 657 445       55 319
00000.M2TS      4609 (0x1201)   0x90            PGS             eng (English)           5453,381                14                      9 820 455       56 177
00000.M2TS      4610 (0x1202)   0x90            PGS             fra (French)            5453,381                14                      9 868 585       56 485
00000.M2TS      4611 (0x1203)   0x90            PGS             spa (Spanish)           5453,381                13                      8 967 759       51 584
00000.M2TS      4612 (0x1204)   0x90            PGS             ita (Italian)           5453,381                14                      9 323 515       53 502
00000.M2TS      4613 (0x1205)   0x90            PGS             jpn (Japanese)          5453,381                11                      7 503 248       43 620
00002.M2TS      4113 (0x1011)   0x1B            AVC                                     3826,723                24 000                  11 479 937 433  62 457 946
00002.M2TS      4352 (0x1100)   0x80            LPCM            deu (German)            3826,723                2 310                   1 105 187 060   6 122 920
00002.M2TS      4353 (0x1101)   0x86            DTS-HD MA       deu (German)            3826,723                2 222                   1 062 964 900   6 369 630
00002.M2TS      4608 (0x1200)   0x90            PGS             deu (German)            3826,723                12                      5 639 702       32 400
00002.M2TS      4609 (0x1201)   0x90            PGS             eng (English)           3826,723                12                      5 730 291       32 885
00002.M2TS      4610 (0x1202)   0x90            PGS             fra (French)            3826,723                12                      5 671 074       32 577
00002.M2TS      4611 (0x1203)   0x90            PGS             spa (Spanish)           3826,723                11                      5 231 943       30 180
00002.M2TS      4612 (0x1204)   0x90            PGS             ita (Italian)           3826,723                11                      5 320 335       30 654
00002.M2TS      4613 (0x1205)   0x90            PGS             jpn (Japanese)          3826,723                9                       4 217 475       24 663
00006.M2TS      4113 (0x1011)   0x1B            AVC                                     13,914                  532                     924 426         5 314
00005.M2TS      4113 (0x1011)   0x1B            AVC                                     0,200                   244                     6 107           41

<---- END FORUMS PASTE ---->
QUICK SUMMARY:
Disc Title:
Disc Size: 43 572 968 756 bytes
Protection: AACS
BD-Java: No
Playlist: 00000.MPLS
Size: 36 367 411 200 bytes
Length: 2:34:54
Total Bitrate: 31,30 Mbps
Video: MPEG-4 AVC Video / 23963 kbps / 1080i / 29,970 fps / 16:9 / High Profile 4.1
Audio: German / DTS-HD Master Audio / 5.1 / 48 kHz / 3301 kbps / 24-bit (DTS Core: 5.1 / 48 kHz / 1509 kbps / 24-bit)
Audio: German / LPCM Audio / 2.0 / 48 kHz / 2304 kbps / 24-bit
Subtitle: English / 13,385 kbps
Subtitle: French / 13,375 kbps
Subtitle: German / 13,166 kbps
Subtitle: Italian / 12,604 kbps
Subtitle: Japanese / 10,088 kbps
Subtitle: Spanish / 12,222 kbps
********************
PLAYLIST: 00008.MPLS
********************
<--- BEGIN FORUMS PASTE --->Код:
Код:
                                                                                Total   Video
Title                                                           Codec   Length  Movie Size      Disc Size       Bitrate Bitrate Main Audio Track                          Secondary Audio Track
-----                                                           ------  ------- --------------  --------------  ------- ------- ------------------                        ---------------------
00008.MPLS                                                      AVC     0:27:00 5 187 127 296   43 572 968 756  25,60   23,99   DD AC3 2.0 192Kbps

Код:
Код:
DISC INFO:
Disc Title:
Disc Size:      43 572 968 756 bytes
Protection:     AACS
BD-Java:        No
BDInfo:         0.5.3
PLAYLIST REPORT:
Name:                   00008.MPLS
Length:                 0:27:00 (h:m:s)
Size:                   5 187 127 296 bytes
Total Bitrate:          25,60 Mbps
VIDEO:
Codec                   Bitrate             Description
-----                   -------             -----------
MPEG-4 AVC Video        23991 kbps          1080i / 29,970 fps / 16:9 / High Profile 4.1
AUDIO:
Codec                           Language        Bitrate         Description
-----                           --------        -------         -----------
Dolby Digital Audio             German          192 kbps        2.0 / 48 kHz / 192 kbps
SUBTITLES:
Codec                           Language        Bitrate         Description
-----                           --------        -------         -----------
Presentation Graphics           English         40,018 kbps
Presentation Graphics           French          46,415 kbps
Presentation Graphics           German          4,014 kbps
Presentation Graphics           Italian         43,304 kbps
Presentation Graphics           Japanese        48,225 kbps
Presentation Graphics           Spanish         43,110 kbps
FILES:
Name            Time In         Length          Size            Total Bitrate
----            -------         ------          ----            -------------
00001.M2TS      0:00:00.000     0:27:00.619     5 187 115 008   25 606
00005.M2TS      0:27:00.619     0:00:00.333     12 288          295
CHAPTERS:
Number          Time In         Length          Avg Video Rate  Max 1-Sec Rate  Max 1-Sec Time  Max 5-Sec Rate  Max 5-Sec Time  Max 10Sec Rate  Max 10Sec Time  Avg Frame Size  Max Frame Size  Max Frame Time
------          -------         ------          --------------  --------------  --------------  --------------  --------------  --------------  --------------  --------------  --------------  --------------
1               0:00:00.000     0:05:19.052     23 163 kbps     38 429 kbps     00:00:40.707    35 387 kbps     00:00:38.104    34 669 kbps     00:00:33.633    96 598 bytes    644 972 bytes   00:00:31.264
2               0:05:19.052     0:10:45.911     24 216 kbps     42 756 kbps     00:14:31.203    36 115 kbps     00:09:29.902    35 363 kbps     00:09:29.735    101 000 bytes   709 296 bytes   00:09:31.537
3               0:16:04.964     0:04:07.880     24 087 kbps     39 451 kbps     00:17:52.004    36 035 kbps     00:16:37.129    35 242 kbps     00:16:33.759    100 463 bytes   558 800 bytes   00:17:52.071
4               0:20:12.844     0:06:48.107     24 226 kbps     42 901 kbps     00:20:38.570    36 106 kbps     00:20:36.902    34 971 kbps     00:20:35.133    101 052 bytes   717 181 bytes   00:20:45.010
STREAM DIAGNOSTICS:
File            PID             Type            Codec           Language                Seconds                 Bitrate                 Bytes           Packets
----            ---             ----            -----           --------                --------------          --------------          -------------   -----
00001.M2TS      4113 (0x1011)   0x1B            AVC                                     1620,519                23 998                  4 861 128 904   26 447 593
00001.M2TS      4352 (0x1100)   0x81            AC3             deu (German)            1620,519                192                     38 871 552      253 070
00001.M2TS      4608 (0x1200)   0x90            PGS             deu (German)            1620,519                4                       813 213         4 644
00001.M2TS      4609 (0x1201)   0x90            PGS             eng (English)           1620,519                40                      8 108 478       46 445
00001.M2TS      4610 (0x1202)   0x90            PGS             fra (French)            1620,519                46                      9 404 529       53 762
00001.M2TS      4611 (0x1203)   0x90            PGS             spa (Spanish)           1620,519                43                      8 734 872       50 149
00001.M2TS      4612 (0x1204)   0x90            PGS             ita (Italian)           1620,519                43                      8 774 267       50 384
00001.M2TS      4613 (0x1205)   0x90            PGS             jpn (Japanese)          1620,519                48                      9 771 287       55 870
00005.M2TS      4113 (0x1011)   0x1B            AVC                                     0,200                   244                     6 107           41

<---- END FORUMS PASTE ---->
QUICK SUMMARY:
Disc Title:
Disc Size: 43 572 968 756 bytes
Protection: AACS
BD-Java: No
Playlist: 00008.MPLS
Size: 5 187 127 296 bytes
Length: 0:27:00
Total Bitrate: 25,60 Mbps
Video: MPEG-4 AVC Video / 23991 kbps / 1080i / 29,970 fps / 16:9 / High Profile 4.1
Audio: German / Dolby Digital Audio / 2.0 / 48 kHz / 192 kbps
Subtitle: English / 40,018 kbps
Subtitle: French / 46,415 kbps
Subtitle: German / 4,014 kbps
Subtitle: Italian / 43,304 kbps
Subtitle: Japanese / 48,225 kbps
Subtitle: Spanish / 43,110 kbps
********************
PLAYLIST: 00013.MPLS
********************
<--- BEGIN FORUMS PASTE --->Код:
Код:
                                                                                Total   Video
Title                                                           Codec   Length  Movie Size      Disc Size       Bitrate Bitrate Main Audio Track                          Secondary Audio Track
-----                                                           ------  ------- --------------  --------------  ------- ------- ------------------                        ---------------------
00013.MPLS                                                      AVC     0:03:06 383 858 688     43 572 968 756  16,46   13,94   LPCM 2.0 1536Kbps (48kHz/16-bit)

Код:
Код:
DISC INFO:
Disc Title:
Disc Size:      43 572 968 756 bytes
Protection:     AACS
BD-Java:        No
BDInfo:         0.5.3
PLAYLIST REPORT:
Name:                   00013.MPLS
Length:                 0:03:06 (h:m:s)
Size:                   383 858 688 bytes
Total Bitrate:          16,46 Mbps
VIDEO:
Codec                   Bitrate             Description
-----                   -------             -----------
MPEG-4 AVC Video        13941 kbps          1080i / 29,970 fps / 16:9 / High Profile 4.1
AUDIO:
Codec                           Language        Bitrate         Description
-----                           --------        -------         -----------
LPCM Audio                      Undetermined    1536 kbps       2.0 / 48 kHz / 1536 kbps / 16-bit
FILES:
Name            Time In         Length          Size            Total Bitrate
----            -------         ------          ----            -------------
00012.M2TS      0:00:00.000     0:03:06.186     383 846 400     16 493
00005.M2TS      0:03:06.186     0:00:00.333     12 288          295
CHAPTERS:
Number          Time In         Length          Avg Video Rate  Max 1-Sec Rate  Max 1-Sec Time  Max 5-Sec Rate  Max 5-Sec Time  Max 10Sec Rate  Max 10Sec Time  Avg Frame Size  Max Frame Size  Max Frame Time
------          -------         ------          --------------  --------------  --------------  --------------  --------------  --------------  --------------  --------------  --------------  --------------
1               0:00:00.000     0:03:06.519     13 941 kbps     25 105 kbps     00:01:07.200    22 246 kbps     00:00:08.641    21 103 kbps     00:00:09.075    58 147 bytes    291 894 bytes   00:00:11.077
STREAM DIAGNOSTICS:
File            PID             Type            Codec           Language                Seconds                 Bitrate                 Bytes           Packets
----            ---             ----            -----           --------                --------------          --------------          -------------   -----
00012.M2TS      4113 (0x1011)   0x1B            AVC                                     186,119                 13 971                  325 033 158     1 769 734
00012.M2TS      4352 (0x1100)   0x80            LPCM            und (Undetermined)      186,119                 1 541                   35 860 800      223 200
00005.M2TS      4113 (0x1011)   0x1B            AVC                                     0,200                   244                     6 107           41

<---- END FORUMS PASTE ---->
QUICK SUMMARY:
Disc Title:
Disc Size: 43 572 968 756 bytes
Protection: AACS
BD-Java: No
Playlist: 00013.MPLS
Size: 383 858 688 bytes
Length: 0:03:06
Total Bitrate: 16,46 Mbps
Video: MPEG-4 AVC Video / 13941 kbps / 1080i / 29,970 fps / 16:9 / High Profile 4.1
Audio: Undetermined / LPCM Audio / 2.0 / 48 kHz / 1536 kbps / 16-bit
********************
PLAYLIST: 00011.MPLS
********************
<--- BEGIN FORUMS PASTE --->Код:
Код:
                                                                                Total   Video
Title                                                           Codec   Length  Movie Size      Disc Size       Bitrate Bitrate Main Audio Track                          Secondary Audio Track
-----                                                           ------  ------- --------------  --------------  ------- ------- ------------------                        ---------------------
00011.MPLS                                                      AVC     0:03:01 374 937 600     43 572 968 756  16,52   14,00   LPCM 2.0 1536Kbps (48kHz/16-bit)

Код:
Код:
DISC INFO:
Disc Title:
Disc Size:      43 572 968 756 bytes
Protection:     AACS
BD-Java:        No
BDInfo:         0.5.3
PLAYLIST REPORT:
Name:                   00011.MPLS
Length:                 0:03:01 (h:m:s)
Size:                   374 937 600 bytes
Total Bitrate:          16,52 Mbps
VIDEO:
Codec                   Bitrate             Description
-----                   -------             -----------
MPEG-4 AVC Video        13998 kbps          1080i / 29,970 fps / 16:9 / High Profile 4.1
AUDIO:
Codec                           Language        Bitrate         Description
-----                           --------        -------         -----------
LPCM Audio                      Undetermined    1536 kbps       2.0 / 48 kHz / 1536 kbps / 16-bit
FILES:
Name            Time In         Length          Size            Total Bitrate
----            -------         ------          ----            -------------
00010.M2TS      0:00:00.000     0:03:01.181     374 925 312     16 555
00005.M2TS      0:03:01.181     0:00:00.333     12 288          295
CHAPTERS:
Number          Time In         Length          Avg Video Rate  Max 1-Sec Rate  Max 1-Sec Time  Max 5-Sec Rate  Max 5-Sec Time  Max 10Sec Rate  Max 10Sec Time  Avg Frame Size  Max Frame Size  Max Frame Time
------          -------         ------          --------------  --------------  --------------  --------------  --------------  --------------  --------------  --------------  --------------  --------------
1               0:00:00.000     0:03:01.514     13 998 kbps     20 426 kbps     00:00:05.538    17 849 kbps     00:00:05.071    16 618 kbps     00:00:05.238    58 383 bytes    233 595 bytes   00:00:05.605
STREAM DIAGNOSTICS:
File            PID             Type            Codec           Language                Seconds                 Bitrate                 Bytes           Packets
----            ---             ----            -----           --------                --------------          --------------          -------------   -----
00010.M2TS      4113 (0x1011)   0x1B            AVC                                     181,048                 14 034                  317 599 196     1 729 215
00010.M2TS      4352 (0x1100)   0x80            LPCM            und (Undetermined)      181,048                 1 544                   34 932 468      217 422
00005.M2TS      4113 (0x1011)   0x1B            AVC                                     0,200                   244                     6 107           41

<---- END FORUMS PASTE ---->
QUICK SUMMARY:
Disc Title:
Disc Size: 43 572 968 756 bytes
Protection: AACS
BD-Java: No
Playlist: 00011.MPLS
Size: 374 937 600 bytes
Length: 0:03:01
Total Bitrate: 16,52 Mbps
Video: MPEG-4 AVC Video / 13998 kbps / 1080i / 29,970 fps / 16:9 / High Profile 4.1
Audio: Undetermined / LPCM Audio / 2.0 / 48 kHz / 1536 kbps / 16-bit
********************
PLAYLIST: 00010.MPLS
********************
<--- BEGIN FORUMS PASTE --->Код:
Код:
                                                                                Total   Video
Title                                                           Codec   Length  Movie Size      Disc Size       Bitrate Bitrate Main Audio Track                          Secondary Audio Track
-----                                                           ------  ------- --------------  --------------  ------- ------- ------------------                        ---------------------
00010.MPLS                                                      AVC     0:03:00 363 816 960     43 572 968 756  16,12   13,61   LPCM 2.0 1536Kbps (48kHz/16-bit)

Код:
Код:
DISC INFO:
Disc Title:
Disc Size:      43 572 968 756 bytes
Protection:     AACS
BD-Java:        No
BDInfo:         0.5.3
PLAYLIST REPORT:
Name:                   00010.MPLS
Length:                 0:03:00 (h:m:s)
Size:                   363 816 960 bytes
Total Bitrate:          16,12 Mbps
VIDEO:
Codec                   Bitrate             Description
-----                   -------             -----------
MPEG-4 AVC Video        13613 kbps          1080i / 29,970 fps / 16:9 / High Profile 4.1
AUDIO:
Codec                           Language        Bitrate         Description
-----                           --------        -------         -----------
LPCM Audio                      Undetermined    1536 kbps       2.0 / 48 kHz / 1536 kbps / 16-bit
FILES:
Name            Time In         Length          Size            Total Bitrate
----            -------         ------          ----            -------------
00009.M2TS      0:00:00.000     0:03:00.179     363 804 672     16 153
00005.M2TS      0:03:00.179     0:00:00.333     12 288          295
CHAPTERS:
Number          Time In         Length          Avg Video Rate  Max 1-Sec Rate  Max 1-Sec Time  Max 5-Sec Rate  Max 5-Sec Time  Max 10Sec Rate  Max 10Sec Time  Avg Frame Size  Max Frame Size  Max Frame Time
------          -------         ------          --------------  --------------  --------------  --------------  --------------  --------------  --------------  --------------  --------------  --------------
1               0:00:00.000     0:03:00.513     13 613 kbps     25 525 kbps     00:02:09.496    22 873 kbps     00:02:19.038    21 453 kbps     00:02:19.005    56 779 bytes    322 678 bytes   00:02:17.470
STREAM DIAGNOSTICS:
File            PID             Type            Codec           Language                Seconds                 Bitrate                 Bytes           Packets
----            ---             ----            -----           --------                --------------          --------------          -------------   -----
00009.M2TS      4113 (0x1011)   0x1B            AVC                                     180,113                 13 643                  307 170 023     1 672 548
00009.M2TS      4352 (0x1100)   0x80            LPCM            und (Undetermined)      180,113                 1 543                   34 738 704      216 216
00005.M2TS      4113 (0x1011)   0x1B            AVC                                     0,200                   244                     6 107           41

<---- END FORUMS PASTE ---->
QUICK SUMMARY:
Disc Title:
Disc Size: 43 572 968 756 bytes
Protection: AACS
BD-Java: No
Playlist: 00010.MPLS
Size: 363 816 960 bytes
Length: 0:03:00
Total Bitrate: 16,12 Mbps
Video: MPEG-4 AVC Video / 13613 kbps / 1080i / 29,970 fps / 16:9 / High Profile 4.1
Audio: Undetermined / LPCM Audio / 2.0 / 48 kHz / 1536 kbps / 16-bit
********************
PLAYLIST: 00009.MPLS
********************
<--- BEGIN FORUMS PASTE --->Код:
Код:
                                                                                Total   Video
Title                                                           Codec   Length  Movie Size      Disc Size       Bitrate Bitrate Main Audio Track                          Secondary Audio Track
-----                                                           ------  ------- --------------  --------------  ------- ------- ------------------                        ---------------------
00009.MPLS                                                      AVC     0:02:59 370 839 552     43 572 968 756  16,53   14,00   LPCM 2.0 1536Kbps (48kHz/16-bit)

Код:
Код:
DISC INFO:
Disc Title:
Disc Size:      43 572 968 756 bytes
Protection:     AACS
BD-Java:        No
BDInfo:         0.5.3
PLAYLIST REPORT:
Name:                   00009.MPLS
Length:                 0:02:59 (h:m:s)
Size:                   370 839 552 bytes
Total Bitrate:          16,53 Mbps
VIDEO:
Codec                   Bitrate             Description
-----                   -------             -----------
MPEG-4 AVC Video        13999 kbps          1080i / 29,970 fps / 16:9 / High Profile 4.1
AUDIO:
Codec                           Language        Bitrate         Description
-----                           --------        -------         -----------
LPCM Audio                      Undetermined    1536 kbps       2.0 / 48 kHz / 1536 kbps / 16-bit
FILES:
Name            Time In         Length          Size            Total Bitrate
----            -------         ------          ----            -------------
00004.M2TS      0:00:00.000     0:02:59.178     370 827 264     16 557
00005.M2TS      0:02:59.178     0:00:00.333     12 288          295
CHAPTERS:
Number          Time In         Length          Avg Video Rate  Max 1-Sec Rate  Max 1-Sec Time  Max 5-Sec Rate  Max 5-Sec Time  Max 10Sec Rate  Max 10Sec Time  Avg Frame Size  Max Frame Size  Max Frame Time
------          -------         ------          --------------  --------------  --------------  --------------  --------------  --------------  --------------  --------------  --------------  --------------
1               0:00:00.000     0:02:59.512     13 999 kbps     23 660 kbps     00:00:05.538    17 300 kbps     00:02:15.502    16 894 kbps     00:01:57.650    58 389 bytes    397 229 bytes   00:00:05.605
STREAM DIAGNOSTICS:
File            PID             Type            Codec           Language                Seconds                 Bitrate                 Bytes           Packets
----            ---             ----            -----           --------                --------------          --------------          -------------   -----
00004.M2TS      4113 (0x1011)   0x1B            AVC                                     179,046                 14 036                  314 128 503     1 710 369
00004.M2TS      4352 (0x1100)   0x80            LPCM            und (Undetermined)      179,046                 1 544                   34 545 904      215 016
00005.M2TS      4113 (0x1011)   0x1B            AVC                                     0,200                   244                     6 107           41

<---- END FORUMS PASTE ---->
QUICK SUMMARY:
Disc Title:
Disc Size: 43 572 968 756 bytes
Protection: AACS
BD-Java: No
Playlist: 00009.MPLS
Size: 370 839 552 bytes
Length: 0:02:59
Total Bitrate: 16,53 Mbps
Video: MPEG-4 AVC Video / 13999 kbps / 1080i / 29,970 fps / 16:9 / High Profile 4.1
Audio: Undetermined / LPCM Audio / 2.0 / 48 kHz / 1536 kbps / 16-bit
********************
PLAYLIST: 00012.MPLS
********************
<--- BEGIN FORUMS PASTE --->Код:
Код:
                                                                                Total   Video
Title                                                           Codec   Length  Movie Size      Disc Size       Bitrate Bitrate Main Audio Track                          Secondary Audio Track
-----                                                           ------  ------- --------------  --------------  ------- ------- ------------------                        ---------------------
00012.MPLS                                                      AVC     0:02:51 353 298 432     43 572 968 756  16,48   13,95   LPCM 2.0 1536Kbps (48kHz/16-bit)

Код:
Код:
DISC INFO:
Disc Title:
Disc Size:      43 572 968 756 bytes
Protection:     AACS
BD-Java:        No
BDInfo:         0.5.3
PLAYLIST REPORT:
Name:                   00012.MPLS
Length:                 0:02:51 (h:m:s)
Size:                   353 298 432 bytes
Total Bitrate:          16,48 Mbps
VIDEO:
Codec                   Bitrate             Description
-----                   -------             -----------
MPEG-4 AVC Video        13955 kbps          1080i / 29,970 fps / 16:9 / High Profile 4.1
AUDIO:
Codec                           Language        Bitrate         Description
-----                           --------        -------         -----------
LPCM Audio                      Undetermined    1536 kbps       2.0 / 48 kHz / 1536 kbps / 16-bit
FILES:
Name            Time In         Length          Size            Total Bitrate
----            -------         ------          ----            -------------
00011.M2TS      0:00:00.000     0:02:51.171     353 286 144     16 511
00005.M2TS      0:02:51.171     0:00:00.333     12 288          295
CHAPTERS:
Number          Time In         Length          Avg Video Rate  Max 1-Sec Rate  Max 1-Sec Time  Max 5-Sec Rate  Max 5-Sec Time  Max 10Sec Rate  Max 10Sec Time  Avg Frame Size  Max Frame Size  Max Frame Time
------          -------         ------          --------------  --------------  --------------  --------------  --------------  --------------  --------------  --------------  --------------  --------------
1               0:00:00.000     0:02:51.504     13 955 kbps     20 873 kbps     00:00:39.806    18 874 kbps     00:01:06.166    17 470 kbps     00:01:05.165    58 202 bytes    290 876 bytes   00:02:38.491
STREAM DIAGNOSTICS:
File            PID             Type            Codec           Language                Seconds                 Bitrate                 Bytes           Packets
----            ---             ----            -----           --------                --------------          --------------          -------------   -----
00011.M2TS      4113 (0x1011)   0x1B            AVC                                     171,104                 13 987                  299 152 235     1 628 880
00011.M2TS      4352 (0x1100)   0x80            LPCM            und (Undetermined)      171,104                 1 543                   33 002 540      205 410
00005.M2TS      4113 (0x1011)   0x1B            AVC                                     0,200                   244                     6 107           41

<---- END FORUMS PASTE ---->
QUICK SUMMARY:
Disc Title:
Disc Size: 43 572 968 756 bytes
Protection: AACS
BD-Java: No
Playlist: 00012.MPLS
Size: 353 298 432 bytes
Length: 0:02:51
Total Bitrate: 16,48 Mbps
Video: MPEG-4 AVC Video / 13955 kbps / 1080i / 29,970 fps / 16:9 / High Profile 4.1
Audio: Undetermined / LPCM Audio / 2.0 / 48 kHz / 1536 kbps / 16-bit
Правила, инструкции, FAQ!!!
Торрент  Добавлен [05 июн 2020, 23:22] Скачать торрент Магнет ссылка
Скачать торрент
[ Размер 210.3 КБ / Просмотров 9 ]

Статус
Проверен 
 
Размер  40.58 ГБ
Приватный: Нет (DHT включён)
.torrent скачан  0
 


     Отправить личное сообщение
   
Страница 1 из 1
Показать сообщения за:  Поле сортировки  
Начать новую тему Ответить на тему


Сейчас этот форум просматривают: нет зарегистрированных пользователей и гости: 0


Вы не можете начинать темы
Вы не можете отвечать на сообщения
Вы не можете редактировать свои сообщения
Вы не можете удалять свои сообщения
Вы не можете добавлять вложения

Перейти:  
cron