Начать новую тему Ответить на тему
Статистика раздачи
Размер: 329.06 МБ | Добавлен: 13 янв 2021, 21:55 | Скачали: 0
Сидеров: 1  [0 байт/сек]    Личеров: 0  [0 байт/сек]
Пред. тема | След. тема 

Автор
Сообщение

СообщениеДобавлено: 13 янв 2021, 21:55 

Ответить с цитатой 

Ayako Hosokawa / A whisper of love (24kt GOLD HDCD)
#777Жанр: Vocal Jazz
Носитель: CD
Страна-производитель диска (релиза): Japan
Год издания: 2016
Издатель (лейбл): Impex
Номер по каталогу: IMP8310
Страна исполнителя (группы): Japan/USA
Аудиокодек: FLAC (*.flac)
Тип рипа: image+.cue
Продолжительность: 01:04:46
Источник: собственный рип c cобственной покупки, https://www.discogs.com/ru/Ayako-Hosokawa-A-Whisper-Of-Love/release/9439695, https://www.impexrecords.com/a-whisper-of-love/
Наличие сканов в содержимом раздачи: да
Треклист:
1. Dream A Little Dream of Me
2. Too Young
3. Sea of Love
4. Someone That I Used to Love
5. That’s All
6. Tea For Two
7. These Foolish Things
8. I’ve Got You Under My Skin
9. For All We Know
10. I Wish You Love
11. A Cottage For Sale
12. It’s All in the Game
13. Tears in Heaven
Код:
Exact Audio Copy V1.6 from 23. October 2020
Отчёт EAC об извлечении, выполненном 12. января 2021, 8:52
Ayako Hosokawa / A Whisper of Love
Дисковод: ATAPI   iHAS124   Y   Adapter: 1  ID: 0
Режим чтения                 : Достоверность
Использование точного потока : Да
Отключение кэша аудио        : Да
Использование указателей C2  : Нет
Коррекция смещения при чтении                     : 48
Способность читать области Lead-in и Lead-out     : Нет
Заполнение пропущенных сэмплов тишиной            : Да
Удаление блоков с тишиной в начале и конце        : Нет
При вычислениях CRC использовались нулевые сэмплы : Да
Интерфейс                                         : Встроенный Win32-интерфейс для Win NT/2000
Выходной формат          : Пользовательский кодировщик
Выбранный битрейт        : 768 kBit/s
Качество                 : Высокий
Добавление ID3-тега      : Нет
Утилита сжатия           : C:\Program Files (x86)\Exact Audio Copy\FLAC\FLAC.EXE
Дополнительные параметры : -6 -V -T "ARTIST=%artist%" -T "TITLE=%title%" -T "ALBUM=%albumtitle%" -T "DATE=%year%" -T "TRACKNUMBER=%tracknr%" -T "GENRE=%genre%" -T "COMMENT=%comment%" -T "BAND=%albuminterpret%" -T "ALBUMARTIST=%albuminterpret%" -T "COMPOSER=%composer%" %haslyrics%--tag-from-file=LYRICS="%lyricsfile%"%haslyrics% -T "DISCNUMBER=%cdnumber%" -T "TOTALDISCS=%totalcds%" -T "TOTALTRACKS=%numtracks%" %hascover%--picture="%coverfile%"%hascover% %source% -o %dest%
TOC извлечённого CD
     Трек |   Старт  | Длительность | Начальный сектор | Конечный сектор
    ---------------------------------------------------------------------
       1  |  0:00.00 |    3:54.15   |           0      |      17564
       2  |  3:54.15 |    4:43.07   |       17565      |      38796
       3  |  8:37.22 |    3:40.70   |       38797      |      55366
       4  | 12:18.17 |    4:30.10   |       55367      |      75626
       5  | 16:48.27 |    4:52.09   |       75627      |      97535
       6  | 21:40.36 |    6:12.51   |       97536      |     125486
       7  | 27:53.12 |    5:07.41   |      125487      |     148552
       8  | 33:00.53 |    5:43.51   |      148553      |     174328
       9  | 38:44.29 |    6:27.24   |      174329      |     203377
      10  | 45:11.53 |    5:10.42   |      203378      |     226669
      11  | 50:22.20 |    4:58.17   |      226670      |     249036
      12  | 55:20.37 |    4:31.67   |      249037      |     269428
      13  | 59:52.29 |    4:53.62   |      269429      |     291465
Характеристики диапазона извлечения и сообщения об ошибках
Выбранный диапазон
     Имя файла D:\14\Ayako Hosokawa - A Whisper of Love.wav
     Копирование прервано
Конец отчёта
------------------------------------------------------------
Exact Audio Copy V1.6 from 23. October 2020
Отчёт EAC об извлечении, выполненном 12. января 2021, 9:54
Ayako Hosokawa / A Whisper of Love
Дисковод: ATAPI   iHAS124   Y   Adapter: 1  ID: 0
Режим чтения                 : Достоверность
Использование точного потока : Да
Отключение кэша аудио        : Да
Использование указателей C2  : Нет
Коррекция смещения при чтении                     : 48
Способность читать области Lead-in и Lead-out     : Нет
Заполнение пропущенных сэмплов тишиной            : Да
Удаление блоков с тишиной в начале и конце        : Нет
При вычислениях CRC использовались нулевые сэмплы : Да
Интерфейс                                         : Встроенный Win32-интерфейс для Win NT/2000
Выходной формат          : Пользовательский кодировщик
Выбранный битрейт        : 768 kBit/s
Качество                 : Высокий
Добавление ID3-тега      : Нет
Утилита сжатия           : C:\Program Files (x86)\Exact Audio Copy\FLAC\FLAC.EXE
Дополнительные параметры : -6 -V -T "ARTIST=%artist%" -T "TITLE=%title%" -T "ALBUM=%albumtitle%" -T "DATE=%year%" -T "TRACKNUMBER=%tracknr%" -T "GENRE=%genre%" -T "COMMENT=%comment%" -T "BAND=%albuminterpret%" -T "ALBUMARTIST=%albuminterpret%" -T "COMPOSER=%composer%" %haslyrics%--tag-from-file=LYRICS="%lyricsfile%"%haslyrics% -T "DISCNUMBER=%cdnumber%" -T "TOTALDISCS=%totalcds%" -T "TOTALTRACKS=%numtracks%" %hascover%--picture="%coverfile%"%hascover% %source% -o %dest%
TOC извлечённого CD
     Трек |   Старт  | Длительность | Начальный сектор | Конечный сектор
    ---------------------------------------------------------------------
       1  |  0:00.00 |    3:54.15   |           0      |      17564
       2  |  3:54.15 |    4:43.07   |       17565      |      38796
       3  |  8:37.22 |    3:40.70   |       38797      |      55366
       4  | 12:18.17 |    4:30.10   |       55367      |      75626
       5  | 16:48.27 |    4:52.09   |       75627      |      97535
       6  | 21:40.36 |    6:12.51   |       97536      |     125486
       7  | 27:53.12 |    5:07.41   |      125487      |     148552
       8  | 33:00.53 |    5:43.51   |      148553      |     174328
       9  | 38:44.29 |    6:27.24   |      174329      |     203377
      10  | 45:11.53 |    5:10.42   |      203378      |     226669
      11  | 50:22.20 |    4:58.17   |      226670      |     249036
      12  | 55:20.37 |    4:31.67   |      249037      |     269428
      13  | 59:52.29 |    4:53.62   |      269429      |     291465
Характеристики диапазона извлечения и сообщения об ошибках
Выбранный диапазон
     Имя файла D:\14\Ayako Hosokawa - A Whisper of Love.wav
     Пиковый уровень 100.0 %
     Скорость извлечения 4.2 X
     Качество диапазона 100.0 %
     CRC теста DE220B78
     CRC копии DE220B78
     Копирование... OK
Ошибок не произошло
AccurateRip: сводка
Трек  1  : извлечено точно (достоверность 8)  [B625C0CA]  (AR v2)
Трек  2  : извлечено точно (достоверность 8)  [44D60E1D]  (AR v2)
Трек  3  : извлечено точно (достоверность 8)  [55776402]  (AR v2)
Трек  4  : извлечено точно (достоверность 8)  [DB647089]  (AR v2)
Трек  5  : извлечено точно (достоверность 8)  [857C86B0]  (AR v2)
Трек  6  : извлечено точно (достоверность 8)  [B8C89564]  (AR v2)
Трек  7  : извлечено точно (достоверность 8)  [65EC8FC1]  (AR v2)
Трек  8  : извлечено точно (достоверность 8)  [8E7D9EB1]  (AR v2)
Трек  9  : извлечено точно (достоверность 8)  [894DFCD6]  (AR v2)
Трек 10  : извлечено точно (достоверность 8)  [A850D766]  (AR v2)
Трек 11  : извлечено точно (достоверность 8)  [1975AF05]  (AR v2)
Трек 12  : извлечено точно (достоверность 8)  [96DDCE55]  (AR v2)
Трек 13  : извлечено точно (достоверность 8)  [7AE79100]  (AR v2)
Все треки извлечены точно
Конец отчёта
---- CUETools DB Plugin V2.1.6
[CTDB TOCID: wHf4HcoJfZnDsGlrHYpxw7odnKk-] found
Submit result: wHf4HcoJfZnDsGlrHYpxw7odnKk- has been confirmed
Track | CTDB Status
  1   | (38/38) Accurately ripped
  2   | (38/38) Accurately ripped
  3   | (38/38) Accurately ripped
  4   | (38/38) Accurately ripped
  5   | (38/38) Accurately ripped
  6   | (38/38) Accurately ripped
  7   | (38/38) Accurately ripped
  8   | (38/38) Accurately ripped
  9   | (38/38) Accurately ripped
 10   | (38/38) Accurately ripped
 11   | (37/38) Accurately ripped
 12   | (38/38) Accurately ripped
 13   | (36/38) Accurately ripped
Код:
REM DISCID 980F2E0D
REM COMMENT "ExactAudioCopy v1.6"
PERFORMER "Ayako Hosokawa"
TITLE "A Whisper of Love"
REM COMPOSER ""
FILE "Ayako Hosokawa - A Whisper of Love.flac" WAVE
  TRACK 01 AUDIO
    TITLE "Dream a Little Dream of Me"
    PERFORMER "Ayako Hosokawa"
    REM COMPOSER ""
    INDEX 01 00:00:00
  TRACK 02 AUDIO
    TITLE "Too Young"
    PERFORMER "Ayako Hosokawa"
    REM COMPOSER ""
    INDEX 01 03:54:15
  TRACK 03 AUDIO
    TITLE "Sea of Love"
    PERFORMER "Ayako Hosokawa"
    REM COMPOSER ""
    INDEX 01 08:37:22
  TRACK 04 AUDIO
    TITLE "Someone That I Used to Love"
    PERFORMER "Ayako Hosokawa"
    REM COMPOSER ""
    INDEX 01 12:18:17
  TRACK 05 AUDIO
    TITLE "That's All"
    PERFORMER "Ayako Hosokawa"
    REM COMPOSER ""
    INDEX 01 16:48:27
  TRACK 06 AUDIO
    TITLE "Tea for Two"
    PERFORMER "Ayako Hosokawa"
    REM COMPOSER ""
    INDEX 01 21:40:36
  TRACK 07 AUDIO
    TITLE "These Foolish Things"
    PERFORMER "Ayako Hosokawa"
    REM COMPOSER ""
    INDEX 01 27:53:12
  TRACK 08 AUDIO
    TITLE "I've Got You Under My Skin"
    PERFORMER "Ayako Hosokawa"
    REM COMPOSER ""
    INDEX 01 33:00:53
  TRACK 09 AUDIO
    TITLE "For All We Know"
    PERFORMER "Ayako Hosokawa"
    REM COMPOSER ""
    INDEX 01 38:44:29
  TRACK 10 AUDIO
    TITLE "I Wish You Love"
    PERFORMER "Ayako Hosokawa"
    REM COMPOSER ""
    INDEX 01 45:11:53
  TRACK 11 AUDIO
    TITLE "A Cottage for Sale"
    PERFORMER "Ayako Hosokawa"
    REM COMPOSER ""
    INDEX 01 50:22:20
  TRACK 12 AUDIO
    TITLE "It's All in the Game"
    PERFORMER "Ayako Hosokawa"
    REM COMPOSER ""
    INDEX 01 55:20:37
  TRACK 13 AUDIO
    TITLE "Tears in Heaven"
    PERFORMER "Ayako Hosokawa"
    REM COMPOSER ""
    INDEX 01 59:52:29
Код:
Ошибок не произошло
AccurateRip: сводка
Трек  1  : извлечено точно (достоверность 8)  [B625C0CA]  (AR v2)
Трек  2  : извлечено точно (достоверность 8)  [44D60E1D]  (AR v2)
Трек  3  : извлечено точно (достоверность 8)  [55776402]  (AR v2)
Трек  4  : извлечено точно (достоверность 8)  [DB647089]  (AR v2)
Трек  5  : извлечено точно (достоверность 8)  [857C86B0]  (AR v2)
Трек  6  : извлечено точно (достоверность 8)  [B8C89564]  (AR v2)
Трек  7  : извлечено точно (достоверность 8)  [65EC8FC1]  (AR v2)
Трек  8  : извлечено точно (достоверность 8)  [8E7D9EB1]  (AR v2)
Трек  9  : извлечено точно (достоверность 8)  [894DFCD6]  (AR v2)
Трек 10  : извлечено точно (достоверность 8)  [A850D766]  (AR v2)
Трек 11  : извлечено точно (достоверность 8)  [1975AF05]  (AR v2)
Трек 12  : извлечено точно (достоверность 8)  [96DDCE55]  (AR v2)
Трек 13  : извлечено точно (достоверность 8)  [7AE79100]  (AR v2)
Все треки извлечены точно
Конец отчёта
Доп. информация: Новый мастеринг от Кевина Грея (Kevin Gray) сделан в июне 2014 года на Cohearent Audio (https://www.cohearent.com/)
Ayako Hosokawa - vocals
Tee Carson - Pianist
Jimmie Smith - Drummer
Также: John Hettel, Ray Loekle, Shota Osabe
Правила, инструкции, FAQ!!!
Торрент  Добавлен [13 янв 2021, 21:55] Скачать торрент Магнет ссылка
Скачать торрент
[ Размер 13.84 КБ / Просмотров 4 ]

Статус
Проверен 
 
Размер  329.06 МБ
Приватный: Нет (DHT включён)
.torrent скачан  0
 


     Отправить личное сообщение
   
Страница 1 из 1
Показать сообщения за:  Поле сортировки  
Начать новую тему Ответить на тему


Сейчас этот форум просматривают: нет зарегистрированных пользователей и гости: 0


Вы не можете начинать темы
Вы не можете отвечать на сообщения
Вы не можете редактировать свои сообщения
Вы не можете удалять свои сообщения
Вы не можете добавлять вложения

Перейти:  
cron