Начать новую тему Ответить на тему
Статистика раздачи
Размер: 6.9 ГБ | Добавлен: 05 июн 2020, 23:04 | Скачали: 0
Сидеров: 0  [0 байт/сек]    Личеров: 0  [0 байт/сек]
Пред. тема | След. тема 

Автор
Сообщение

СообщениеДобавлено: 05 июн 2020, 23:04 

Ответить с цитатой 

Verdi - Aida
Верди - Аида

Год выпуска: 2009
Лейбл: Unitel Classica
Жанр: Opera
Продолжительность: 02:11:14
Язык: Italian
Перевод: Субтитры (marker13)
Субтитры: Русские, Italian, English, French, German, Spanish
Режиссер: Graham Vick
Дирижер: Carlo Rizzi

Исполнители:
Tatiana Serjan (Aida);
Tigran Martirossian (Ramfis);
Rubens Pelizzari (Radamès);
Iano Tamar (Amneris);
Kevin Short (The King);
Ronald Samm (A Messenger);
Elisabetta Martorana (A Priestess);
Iain Paterson (Amonasro);
Polish Radio Choir Kraków, Bregenzer Festspielchor, Camerata Silezia
Wiener Symphoniker
Описание: Постановка оперы "Аида", записанная в Австрии на оперном фестивале в городе Брегенц. Этот показ стал прекрасным сочетанием плавучей сцены и творения Джузеппе Верди, изумительного единства действия, созданного природой и человеческим гением.
Оперный фестиваль в австрийском городе Брегенц входит в число самых знаменитых фестивалей мира. Он известен не только исполнением классических шедевров в традиционной постановке, но и авангардными, смелыми решениями, которые сами становятся классикой оперного искусства. Спектакли, поставленные здесь, составляют богатейший материал и с уверенностью могут стать пособием по современной оперной режиссуре. Фестиваль собирает на своих площадках известнейших оперных режиссеров. В помощь им - и одна из самых необычных и больших площадок в мире - плавающая сцена, вмещающая 7000 человек. В разработку новейшей электронной системы, позволяющей на открытом воздухе имитировать акустику закрытого помещения, в начале 2000-х были вложены миллионы евро. В озерных спектаклях исполнители поют в микрофоны, а оркестранты с дирижером сидят в театре напротив — их игру транслируют через мощные динамики, а показывают на гигантских экранах.
В 2009 году на этой же сцене было решено поставить, пожалуй, самое яркое вердиевское творение – оперу «Аида». Для этого специально был приглашен режиссер, постоянно сотрудничающий с лучшими оперными театрами мира, от La Scala до Metropolitan - англичанин Грэм Вик, «…сочинитель оперного масскульта, концептуального, эффектно-зрелищного…». Во многом благодаря этой постановке в 2009 году фестиваль установил рекорд посещаемости. По словам его представителей, он собрал 259084 человека. Постановка летнего фестиваля в Брегенце, состоявшаяся 22 июля 2009 года, привнесла новый взгляд на классику: действие на плавучей сцене превратило Констанцское озеро Австрии на один вечер в египетский Нил. Хотя постановка стала во многом нетрадиционной, ее музыкальный и драматический контекст оказался более ярким за счет общего художественного оформления. По мнению одного из очевидцев, «…пестрота массовых мизансцен и танцев сменялась захватывающими ансамблями солистов, а хоровые сцены растворялись в хореографических…». Вдобавок к этому постоянный соавтор режиссера Пол Браун создал настоящие монументальные броские конструкции (как, например, перемещающиеся подводные и надводные платформы, плавающие и летающие лодки и т.д.).
Качество видео: BDRip (720p)
Формат/Контейнер: MKV
Видео кодек: H.264
Аудио кодек: DTS
Видео поток: AVC, 6000 Кбит/сек, 1280 x 720 (16:9), 29.970 fps
Аудио поток: DTS, 1510 Кбит/сек, 6 каналов, 48,0 КГц
H:\temp\aida\Aida Bregenz.mkv
General
Unique ID : 240199431810324985812230849606091272197 (0xB4B4BA536229D2ADAC75D3487A6BF005)
Complete name : H:\temp\aida\Aida Bregenz.mkv
Format : Matroska
Format version : Version 2
File size : 6.90 GiB
Duration : 2h 11mn
Overall bit rate : 7 528 Kbps
Encoded date : UTC 2012-04-05 11:04:03
Writing application : mkvmerge v5.4.0 ('Piper') built on Mar 10 2012 13:34:39
Writing library : libebml v1.2.3 + libmatroska v1.3.0
Video #1
ID : 1
Format : AVC
Format/Info : Advanced Video Codec
Format profile : High@L3.1
Format settings, CABAC : Yes
Format settings, ReFrames : 4 frames
Muxing mode : Header stripping
Codec ID : V_MPEG4/ISO/AVC
Duration : 2h 11mn
Bit rate : 6 000 Kbps
Width : 1 280 pixels
Height : 720 pixels
Display aspect ratio : 16:9
Frame rate : 29.970 fps
Color space : YUV
Chroma subsampling : 4:2:0
Bit depth : 8 bits
Scan type : Progressive
Bits/(Pixel*Frame) : 0.217
Stream size : 5.38 GiB (78%)
Writing library : x264 core 120 r2164 da19765
Encoding settings : cabac=1 / ref=3 / deblock=1:-1:-1 / analyse=0x3:0x113 / me=hex / subme=7 / psy=1 / psy_rd=1.00:0.15 / mixed_ref=1 / me_range=16 / chroma_me=1 / trellis=1 / 8x8dct=1 / cqm=0 / deadzone=21,11 / fast_pskip=1 / chroma_qp_offset=-3 / threads=6 / sliced_threads=0 / nr=0 / decimate=1 / interlaced=0 / bluray_compat=0 / constrained_intra=0 / bframes=3 / b_pyramid=2 / b_adapt=1 / b_bias=0 / direct=1 / weightb=1 / open_gop=0 / weightp=2 / keyint=300 / keyint_min=29 / scenecut=40 / intra_refresh=0 / rc_lookahead=40 / rc=2pass / mbtree=1 / bitrate=6000 / ratetol=1.0 / qcomp=0.60 / qpmin=0 / qpmax=69 / qpstep=4 / cplxblur=20.0 / qblur=0.5 / ip_ratio=1.40 / aq=1:1.00
Language : Italian
Audio #2
ID : 2
Format : DTS
Format/Info : Digital Theater Systems
Muxing mode : Header stripping
Codec ID : A_DTS
Duration : 2h 11mn
Bit rate mode : Constant
Bit rate : 1 510 Kbps
Channel(s) : 6 channels
Channel positions : Front: L C R, Side: L R, LFE
Sampling rate : 48.0 KHz
Bit depth : 24 bits
Compression mode : Lossy
Stream size : 1.38 GiB (20%)
Title : DTS 5.1
Language : Italian
Text #3
ID : 3
Format : UTF-8
Codec ID : S_TEXT/UTF8
Codec ID/Info : UTF-8 Plain Text
Title : Russian
Language : Russian
Text #4
ID : 4
Format : PGS
Muxing mode : zlib
Codec ID : S_HDMV/PGS
Codec ID/Info : The same subtitle format used on BDs/HD-DVDs
Title : Italian
Language : Italian
Text #5
ID : 5
Format : PGS
Muxing mode : zlib
Codec ID : S_HDMV/PGS
Codec ID/Info : The same subtitle format used on BDs/HD-DVDs
Title : English
Language : English
Text #6
ID : 6
Format : PGS
Muxing mode : zlib
Codec ID : S_HDMV/PGS
Codec ID/Info : The same subtitle format used on BDs/HD-DVDs
Title : German
Language : German
Text #7
ID : 7
Format : PGS
Muxing mode : zlib
Codec ID : S_HDMV/PGS
Codec ID/Info : The same subtitle format used on BDs/HD-DVDs
Title : French
Language : French
Text #8
ID : 8
Format : PGS
Muxing mode : zlib
Codec ID : S_HDMV/PGS
Codec ID/Info : The same subtitle format used on BDs/HD-DVDs
Title : Spanish
Language : Spanish
[/spolier]
Правила, инструкции, FAQ!!!
Торрент  Добавлен [05 июн 2020, 23:04] Скачать торрент Магнет ссылка
Скачать торрент
[ Размер 17.8 КБ / Просмотров 2 ]

Статус
Проверен 
 
Размер  6.9 ГБ
Приватный: Нет (DHT включён)
.torrent скачан  0
 


     Отправить личное сообщение
   
Страница 1 из 1
Показать сообщения за:  Поле сортировки  
Начать новую тему Ответить на тему


Сейчас этот форум просматривают: нет зарегистрированных пользователей и гости: 0


Вы не можете начинать темы
Вы не можете отвечать на сообщения
Вы не можете редактировать свои сообщения
Вы не можете удалять свои сообщения
Вы не можете добавлять вложения

Перейти:  
cron