Начать новую тему Ответить на тему
Статистика раздачи
Размер: 325.46 МБ | Добавлен: 29 сен 2020, 21:21 | Скачали: 1
Сидеров: 38  [0 байт/сек]    Личеров: 12  [0 байт/сек]
Пред. тема | След. тема 

Автор
Сообщение

СообщениеДобавлено: 29 сен 2020, 21:21 

Ответить с цитатой 

A Tribute to Metallica (Metal Hammer Promo CD)
#777Жанр: Thrash Metal
Носитель: CD
Страна-производитель диска (релиза): Germany
Год издания: 2020
Издатель (лейбл): Metal Hammer
Номер по каталогу: N/A
Страна исполнителя (группы): International
Аудиокодек: FLAC (*.flac)
Тип рипа: image+.cue
Продолжительность: 00:44:45
Источник: собственный рип
Наличие сканов в содержимом раздачи: да
Треклист:
01. Sabaton - For Whom the Bells Tolls 05:22
02. Motörhead - Enter Sandman (feat. Zebrahead) 05:12
03. Ensiferum - Battery 05:13
04. Apocalyptica - Creeping Death 05:06
05. Destruction - Whiplash 03:31
06. Gojira - Escape 05:08
07. Vader - Fight Fire with Fire 04:05
08. Savage Messiah - Of Wolf and Man 04:13
09. Steel Prophet - Fade to Black 06:43
Код:
Exact Audio Copy V1.5 from 20. February 2020
EAC extraction logfile from 14. September 2020, 14:41
Various Artists / A Tribute to Metallica
Used drive  : HP      DVD Writer 1170d   Adapter: 1  ID: 1
Read mode               : Secure
Utilize accurate stream : Yes
Defeat audio cache      : Yes
Make use of C2 pointers : No
Read offset correction                      : 6
Overread into Lead-In and Lead-Out          : No
Fill up missing offset samples with silence : Yes
Delete leading and trailing silent blocks   : No
Null samples used in CRC calculations       : Yes
Used interface                              : Native Win32 interface for Win NT & 2000
Used output format              : User Defined Encoder
Selected bitrate                : 1024 kBit/s
Quality                         : High
Add ID3 tag                     : No
Command line compressor         : C:\Program Files (x86)\Exact Audio Copy\Flac\flac.exe
Additional command line options : -V -8 -T "Date=%year%" -T "Genre=%genre%" %source%
TOC of the extracted CD
     Track |   Start  |  Length  | Start sector | End sector
    ---------------------------------------------------------
        1  |  0:00.00 |  5:24.68 |         0    |    24367
        2  |  5:24.68 |  5:13.58 |     24368    |    47900
        3  | 10:38.51 |  5:15.10 |     47901    |    71535
        4  | 15:53.61 |  5:08.43 |     71536    |    94678
        5  | 21:02.29 |  3:33.70 |     94679    |   110723
        6  | 24:36.24 |  5:06.27 |    110724    |   133700
        7  | 29:42.51 |  4:06.52 |    133701    |   152202
        8  | 33:49.28 |  4:13.49 |    152203    |   171226
        9  | 38:03.02 |  6:42.32 |    171227    |   201408
Range status and errors
Selected range
     Filename C:\EAC\ungern666\Various Artists - A Tribute to Metallica.wav
     Peak level 100.0 %
     Extraction speed 6.7 X
     Range quality 99.9 %
     Test CRC AEEAA6F1
     Copy CRC AEEAA6F1
     Copy OK
No errors occurred
AccurateRip summary
Track  1  not present in database
Track  2  not present in database
Track  3  not present in database
Track  4  not present in database
Track  5  not present in database
Track  6  not present in database
Track  7  not present in database
Track  8  not present in database
Track  9  not present in database
None of the tracks are present in the AccurateRip database
End of status report
---- AcoustID Plugin V1.2.0
Total fingerprints: 9
---- CUETools DB Plugin V2.1.6
[CTDB TOCID: iOm44nfoxY8Y_UuAoTvRuMJahEY-] found
Submit result: iOm44nfoxY8Y_UuAoTvRuMJahEY- has been confirmed
Track | CTDB Status
  1   | (17/17) Accurately ripped
  2   | (17/17) Accurately ripped
  3   | (17/17) Accurately ripped
  4   | (17/17) Accurately ripped
  5   | (17/17) Accurately ripped
  6   | (17/17) Accurately ripped
  7   | (17/17) Accurately ripped
  8   | (17/17) Accurately ripped
  9   | (17/17) Accurately ripped
==== Log checksum 64DABF2D30E8B1F00150CA09783EC456B458EF5449AA1825033376114D34E8A0 ====
Код:
REM DATE 2020
REM DISCID 760A7D09
REM COMMENT "ExactAudioCopy v1.5"
PERFORMER "Various Artists"
TITLE "A Tribute to Metallica"
FILE "Various Artists - A Tribute to Metallica.flac" WAVE
  TRACK 01 AUDIO
    TITLE "For Whom the Bell Tolls"
    PERFORMER "Sabaton"
    INDEX 01 00:00:00
  TRACK 02 AUDIO
    TITLE "Enter Sandman (feat. Zebrahead)"
    PERFORMER "Motorhead"
    INDEX 00 05:22:68
    INDEX 01 05:24:68
  TRACK 03 AUDIO
    TITLE "Battery"
    PERFORMER "Ensiferum"
    INDEX 00 10:36:51
    INDEX 01 10:38:51
  TRACK 04 AUDIO
    TITLE "Creeping Death"
    PERFORMER "Apocalyptica"
    INDEX 00 15:51:61
    INDEX 01 15:53:61
  TRACK 05 AUDIO
    TITLE "Whiplash"
    PERFORMER "Destruction"
    INDEX 00 21:00:29
    INDEX 01 21:02:29
  TRACK 06 AUDIO
    TITLE "Escape"
    PERFORMER "Gojira"
    INDEX 00 24:34:24
    INDEX 01 24:36:24
  TRACK 07 AUDIO
    TITLE "Fight Fire with Fire"
    PERFORMER "Vader"
    INDEX 00 29:40:51
    INDEX 01 29:42:51
  TRACK 08 AUDIO
    TITLE "Of Wolf and Man"
    PERFORMER "Savage Messiah"
    INDEX 00 33:47:28
    INDEX 01 33:49:28
  TRACK 09 AUDIO
    TITLE "Fade to Black"
    PERFORMER "Steel Prophet"
    INDEX 00 38:01:02
    INDEX 01 38:03:02


Материал предназначен для ознакомления!
Правила, инструкции, FAQ!!!
Торрент  Добавлен [29 сен 2020, 21:21] Скачать торрент Магнет ссылка
Скачать торрент
[ Размер 13.69 КБ / Просмотров 17 ]

Статус
Проверен 
 
Размер  325.46 МБ
Приватный: Нет (DHT включён)
.torrent скачан  1
 


     Отправить личное сообщение
   
Страница 1 из 1
Показать сообщения за:  Поле сортировки  
Начать новую тему Ответить на тему


Сейчас этот форум просматривают: нет зарегистрированных пользователей и гости: 0


Вы не можете начинать темы
Вы не можете отвечать на сообщения
Вы не можете редактировать свои сообщения
Вы не можете удалять свои сообщения
Вы не можете добавлять вложения

Перейти:  
cron