Начать новую тему Ответить на тему
Статистика раздачи
Размер: 303.76 МБ | Добавлен: 27 июн 2020, 14:22 | Скачали: 0
Сидеров: 0  [0 байт/сек]    Личеров: 0  [0 байт/сек]
Пред. тема | След. тема 

Автор
Сообщение

СообщениеДобавлено: 27 июн 2020, 14:22 

Ответить с цитатой 

Suicide Nation / Shoot To Kill
Жанр: Thrash Metal
Носитель: CD
Год издания: 2012
Издатель (лейбл): Australis Records
Номер по каталогу: AUS033CD
Страна исполнителя (группы): Chile
Аудиокодек: FLAC (*.flac)
Тип рипа: image+.cue
Продолжительность: 00:38:23
Источник: собственный рип
Наличие сканов в содержимом раздачи: да
Треклист:
01. See The World Burn 03:56
02. Another Way To Die 04:01
03. Shoot To Kill 05:14
04. No Bound To Violence 04:28
05. Reaper 03:44
06. Day Of Destruction 03:54
07. In Cold Blood Crime 04:57
08. Suicide Nation 03:09
09. Born Guilty 04:59
Код:
Exact Audio Copy V1.1 from 23. June 2015
Отчёт EAC об извлечении, выполненном 23. июня 2020, 10:34
Suicide Nation / Shoot To Kill
Дисковод: HL-DT-STDVDRAM GTA0N   Adapter: 1  ID: 0
Режим чтения                 : Достоверность
Использование точного потока : Да
Отключение кэша аудио        : Да
Использование указателей C2  : Нет
Коррекция смещения при чтении                     : 102
Способность читать области Lead-in и Lead-out     : Нет
Заполнение пропущенных сэмплов тишиной            : Да
Удаление блоков с тишиной в начале и конце        : Нет
При вычислениях CRC использовались нулевые сэмплы : Да
Интерфейс                                         : Встроенный Win32-интерфейс для Win NT/2000
Выходной формат          : Пользовательский кодировщик
Выбранный битрейт        : 768 kBit/s
Качество                 : Высокий
Добавление ID3-тега      : Нет
Утилита сжатия           : C:\Program Files (x86)\Exact Audio Copy\FLAC\FLAC.EXE
Дополнительные параметры : -V -8 -T "Date=%year%" -T "Genre=%genre%" %source%
TOC извлечённого CD
     Трек |   Старт  | Длительность | Начальный сектор | Конечный сектор
    ---------------------------------------------------------------------
       1  |  0:00.00 |    3:56.32   |           0      |      17731
       2  |  3:56.32 |    4:00.66   |       17732      |      35797
       3  |  7:57.23 |    5:13.50   |       35798      |      59322
       4  | 13:10.73 |    4:28.20   |       59323      |      79442
       5  | 17:39.18 |    3:44.12   |       79443      |      96254
       6  | 21:23.30 |    3:54.21   |       96255      |     113825
       7  | 25:17.51 |    4:57.36   |      113826      |     136136
       8  | 30:15.12 |    3:08.62   |      136137      |     150298
       9  | 33:23.74 |    4:58.52   |      150299      |     172700
Характеристики диапазона извлечения и сообщения об ошибках
Выбранный диапазон
     Имя файла C:\Users\магазин\Music\Мои лосята\Suicide Nation - Shoot To Kill.wav
     Пиковый уровень 100.0 %
     Скорость извлечения 3.7 X
     Качество диапазона 100.0 %
     CRC теста AABAEEBF
     CRC копии AABAEEBF
     Копирование... OK
Ошибок не произошло
AccurateRip: сводка
Трек  1  отсутствует в базе данных
Трек  2  отсутствует в базе данных
Трек  3  отсутствует в базе данных
Трек  4  отсутствует в базе данных
Трек  5  отсутствует в базе данных
Трек  6  отсутствует в базе данных
Трек  7  отсутствует в базе данных
Трек  8  отсутствует в базе данных
Трек  9  отсутствует в базе данных
Ни одного трека нет в базе AccurateRip
Конец отчёта
---- CUETools DB Plugin V2.1.6
[CTDB TOCID: .xnOKuV2.kLV9rXFiBzBRM8DYMY-] found
Submit result: .xnOKuV2.kLV9rXFiBzBRM8DYMY- has been confirmed
Track | CTDB Status
  1   | (1/1) Accurately ripped
  2   | (1/1) Accurately ripped
  3   | (1/1) Accurately ripped
  4   | (1/1) Accurately ripped
  5   | (1/1) Accurately ripped
  6   | (1/1) Accurately ripped
  7   | (1/1) Accurately ripped
  8   | (1/1) Accurately ripped
  9   | (1/1) Accurately ripped
==== Контрольная сумма отчёта AE7C7326D21E059A14B7FC7EE071996C16557827A2CDE16CE25B310ED618DF42 ====
Код:
REM GENRE "Thrash Metal"
REM DATE 2012
REM DISCID 7508FE09
REM COMMENT "ExactAudioCopy v1.1"
PERFORMER "Suicide Nation"
TITLE "Shoot To Kill"
FILE "Suicide Nation - Shoot To Kill.flac" WAVE
  TRACK 01 AUDIO
    TITLE "See The World Burn"
    PERFORMER "Suicide Nation"
    INDEX 01 00:00:00
  TRACK 02 AUDIO
    TITLE "Another Way To Die"
    PERFORMER "Suicide Nation"
    INDEX 00 03:54:32
    INDEX 01 03:56:32
  TRACK 03 AUDIO
    TITLE "Shoot To Kill"
    PERFORMER "Suicide Nation"
    INDEX 00 07:55:23
    INDEX 01 07:57:23
  TRACK 04 AUDIO
    TITLE "No Bound To Violence"
    PERFORMER "Suicide Nation"
    INDEX 00 13:08:73
    INDEX 01 13:10:73
  TRACK 05 AUDIO
    TITLE "Reaper"
    PERFORMER "Suicide Nation"
    INDEX 00 17:37:18
    INDEX 01 17:39:18
  TRACK 06 AUDIO
    TITLE "Day Of Destruction"
    PERFORMER "Suicide Nation"
    INDEX 00 21:21:30
    INDEX 01 21:23:30
  TRACK 07 AUDIO
    TITLE "In Cold Blood Crime"
    PERFORMER "Suicide Nation"
    INDEX 00 25:15:51
    INDEX 01 25:17:51
  TRACK 08 AUDIO
    TITLE "Suicide Nation"
    PERFORMER "Suicide Nation"
    INDEX 00 30:13:12
    INDEX 01 30:15:12
  TRACK 09 AUDIO
    TITLE "Born Guilty"
    PERFORMER "Suicide Nation"
    INDEX 00 33:21:74
    INDEX 01 33:23:74
Правила, инструкции, FAQ!!!
Торрент  Добавлен [27 июн 2020, 14:22] Скачать торрент Магнет ссылка
Скачать торрент
[ Размер 13.12 КБ / Просмотров 2 ]

Статус
Проверен 
 
Размер  303.76 МБ
Приватный: Нет (DHT включён)
.torrent скачан  0
 


     Отправить личное сообщение
   
Страница 1 из 1
Показать сообщения за:  Поле сортировки  
Начать новую тему Ответить на тему


Сейчас этот форум просматривают: нет зарегистрированных пользователей и гости: 0


Вы не можете начинать темы
Вы не можете отвечать на сообщения
Вы не можете редактировать свои сообщения
Вы не можете удалять свои сообщения
Вы не можете добавлять вложения

Перейти:  
cron