Начать новую тему Ответить на тему
Статистика раздачи
Размер: 1.11 ГБ | Добавлен: 27 июн 2020, 14:22 | Скачали: 1
Сидеров: 19  [0 байт/сек]    Личеров: 0  [0 байт/сек]
Пред. тема | След. тема 

Автор
Сообщение

СообщениеДобавлено: 27 июн 2020, 14:22 

Ответить с цитатой 

SOLITUDE
Poisoned Population: The Complete Collection (1987-1994)

Жанр: Thrash Metal
Носитель: CD
Страна-производитель диска (релиза): U.S.A.
Год издания: 2009
Издатель (лейбл): Divebomb Records / Tribunal Records
Номер по каталогу: DIVE006
Страна исполнителя (группы): U.S.A. (Wilmington, Delaware)
Аудиокодек: FLAC (*.flac)
Тип рипа: image+.cue
Продолжительность: 0:49:38 + 1:03:38
Источник: собственный рип
Наличие сканов в содержимом раздачи: да
Релиз от группы:
#777Треклист:
1. Twisted
2. No Future
3. Tipping The Balance
4. Alter The Red
5. Mind Pollution
6. From Within
7. The Afterlife
8. A Loss Of Blood
9. The Empty
10. Poisoned Population
11. In This Life
12. Side Winder
Код:
Exact Audio Copy V1.5 from 20. February 2020
EAC extraction logfile from 22. June 2020, 21:00
Solitude / From Within
Used drive  : ASUS    DRW-24B1ST   Adapter: 1  ID: 1
Read mode               : Secure
Utilize accurate stream : Yes
Defeat audio cache      : Yes
Make use of C2 pointers : No
Read offset correction                      : 6
Overread into Lead-In and Lead-Out          : No
Fill up missing offset samples with silence : Yes
Delete leading and trailing silent blocks   : No
Null samples used in CRC calculations       : Yes
Used interface                              : Native Win32 interface for Win NT & 2000
Used output format              : User Defined Encoder
Selected bitrate                : 1024 kBit/s
Quality                         : High
Add ID3 tag                     : No
Command line compressor         : C:\Program Files (x86)\Exact Audio Copy\Flac\flac.exe
Additional command line options : -V -8 -T "Genre=%genre%" -T "Artist=%artist%" -T "Title=%title%" -T "Album=%albumtitle%" -T "Date=%year%" -T "Tracknumber=%tracknr%" -T "Comment=%comment%" %source%
TOC of the extracted CD
     Track |   Start  |  Length  | Start sector | End sector
    ---------------------------------------------------------
        1  |  0:00.00 |  4:19.32 |         0    |    19456
        2  |  4:19.32 |  4:39.40 |     19457    |    40421
        3  |  8:58.72 |  3:00.54 |     40422    |    53975
        4  | 11:59.51 |  4:50.55 |     53976    |    75780
        5  | 16:50.31 |  3:03.27 |     75781    |    89532
        6  | 19:53.58 |  2:23.62 |     89533    |   100319
        7  | 22:17.45 |  4:53.12 |    100320    |   122306
        8  | 27:10.57 |  5:14.48 |    122307    |   145904
        9  | 32:25.30 |  3:57.02 |    145905    |   163681
       10  | 36:22.32 |  4:04.39 |    163682    |   182020
       11  | 40:26.71 |  3:43.27 |    182021    |   198772
       12  | 44:10.23 |  5:27.30 |    198773    |   223327
       13  | 52:09.53 | 26:52.26 |    234728    |   355653
Range status and errors
Selected range
     Filename F:\Ginger Devil\Solitude - Poisoned Population (2009 Remaster)\CD-1 - From Within (1994)\Solitude - From Within.wav
     Peak level 100.0 %
     Extraction speed 5.7 X
     Range quality 99.9 %
     Test CRC CE167C4A
     Copy CRC CE167C4A
     Copy OK
No errors occurred
AccurateRip summary
Track  1  accurately ripped (confidence 3)  [F6358A59]  (AR v2)
Track  2  accurately ripped (confidence 3)  [0ECA7E0E]  (AR v2)
Track  3  accurately ripped (confidence 3)  [0647F982]  (AR v2)
Track  4  accurately ripped (confidence 3)  [2DE51813]  (AR v2)
Track  5  accurately ripped (confidence 3)  [63C8971C]  (AR v2)
Track  6  accurately ripped (confidence 3)  [B1C57795]  (AR v2)
Track  7  accurately ripped (confidence 3)  [9E99CAD4]  (AR v2)
Track  8  accurately ripped (confidence 3)  [5DA53974]  (AR v2)
Track  9  accurately ripped (confidence 3)  [C7BD0617]  (AR v2)
Track 10  accurately ripped (confidence 3)  [38B4D8EF]  (AR v2)
Track 11  accurately ripped (confidence 3)  [F540AC5D]  (AR v2)
Track 12  accurately ripped (confidence 3)  [D06AFD62]  (AR v2)
All tracks accurately ripped
End of status report
---- CUETools DB Plugin V2.1.6
[CTDB TOCID: .D7v54GQoAb9JqBGvSFY5K46qLE-] found
Submit result: already submitted
Track | CTDB Status
  1   | (6/6) Accurately ripped
  2   | (6/6) Accurately ripped
  3   | (6/6) Accurately ripped
  4   | (6/6) Accurately ripped
  5   | (6/6) Accurately ripped
  6   | (6/6) Accurately ripped
  7   | (6/6) Accurately ripped
  8   | (6/6) Accurately ripped
  9   | (6/6) Accurately ripped
 10   | (6/6) Accurately ripped
 11   | (6/6) Accurately ripped
 12   | (6/6) Accurately ripped
==== Log checksum 0D8F4CD1208EFFB3D4AF192480734044DEAA7D35DCCF972AE6F95A969E76C506 ====
Код:
REM GENRE "Thrash Metal"
REM DATE 1994/2009
REM DISCID 9912860D
REM COMMENT "ExactAudioCopy v1.5"
PERFORMER "Solitude"
TITLE "From Within"
REM COMPOSER "Solitude"
FILE "Solitude - From Within.flac" WAVE
  TRACK 01 AUDIO
    TITLE "Twisted"
    PERFORMER "Solitude"
    REM COMPOSER "Solitude"
    FLAGS DCP
    INDEX 01 00:00:00
  TRACK 02 AUDIO
    TITLE "No Future"
    PERFORMER "Solitude"
    REM COMPOSER "Solitude"
    INDEX 01 04:19:32
  TRACK 03 AUDIO
    TITLE "Tipping The Balance"
    PERFORMER "Solitude"
    REM COMPOSER "Solitude"
    INDEX 01 08:58:72
  TRACK 04 AUDIO
    TITLE "Alter The Red"
    PERFORMER "Solitude"
    REM COMPOSER "Solitude"
    INDEX 01 11:59:51
  TRACK 05 AUDIO
    TITLE "Mind Pollution"
    PERFORMER "Solitude"
    REM COMPOSER "Solitude"
    INDEX 01 16:50:31
  TRACK 06 AUDIO
    TITLE "From Within"
    PERFORMER "Solitude"
    REM COMPOSER "Solitude"
    INDEX 01 19:53:58
  TRACK 07 AUDIO
    TITLE "The Afterlife"
    PERFORMER "Solitude"
    REM COMPOSER "Solitude"
    INDEX 01 22:17:45
  TRACK 08 AUDIO
    TITLE "A Loss Of Blood"
    PERFORMER "Solitude"
    REM COMPOSER "Solitude"
    INDEX 01 27:10:57
  TRACK 09 AUDIO
    TITLE "The Empty"
    PERFORMER "Solitude"
    REM COMPOSER "Solitude"
    INDEX 01 32:25:30
  TRACK 10 AUDIO
    TITLE "Poisoned Population"
    PERFORMER "Solitude"
    REM COMPOSER "Solitude"
    INDEX 01 36:22:32
  TRACK 11 AUDIO
    TITLE "In This Life"
    PERFORMER "Solitude"
    REM COMPOSER "Solitude"
    INDEX 01 40:26:71
  TRACK 12 AUDIO
    TITLE "Side Winder"
    PERFORMER "Solitude"
    REM COMPOSER "Solitude"
    INDEX 01 44:10:23
    Pictures
    Live @ Sundance (Bay Shore, NY)
    - Sidewinder
    - No Future
    - Victimized
    - Full Of It
    - War Pigs
    Код:
    General
    Complete name                            : F:\Ginger Devil\Solitude - Poisoned Population (2009 Remaster)\Enhanced CD-1\CDPLUS\SOLITUDE_BAYSHORE_NY.mov
    Format                                   : MPEG-4
    Format profile                           : QuickTime
    Codec ID                                 : qt
    File size                                : 175 MiB
    Duration                                 : 29mn 46s
    Overall bit rate                         : 820 Kbps
    Encoded date                             : UTC 2009-07-24 18:35:54
    Tagged date                              : UTC 2009-07-24 18:36:11
    Writing library                          : Apple QuickTime
    Video
    ID                                       : 2
    Format                                   : AVC
    Format/Info                              : Advanced Video Codec
    Format profile                           : Main@L3.0
    Format settings, CABAC                   : No
    Format settings, ReFrames                : 2 frames
    Codec ID                                 : avc1
    Codec ID/Info                            : Advanced Video Coding
    Duration                                 : 29mn 46s
    Bit rate                                 : 714 Kbps
    Width                                    : 480 pixels
    Height                                   : 360 pixels
    Display aspect ratio                     : 4:3
    Frame rate mode                          : Constant
    Frame rate                               : 29.970 fps
    Color space                              : YUV
    Chroma subsampling                       : 4:2:0
    Bit depth                                : 8 bits
    Scan type                                : Progressive
    Bits/(Pixel*Frame)                       : 0.138
    Stream size                              : 152 MiB (87%)
    Language                                 : English
    Encoded date                             : UTC 2009-07-24 18:33:58
    Tagged date                              : UTC 2009-07-24 18:36:11
    Color primaries                          : BT.601 NTSC
    Transfer characteristics                 : BT.709
    Matrix coefficients                      : BT.601
    Audio
    ID                                       : 1
    Format                                   : AAC
    Format/Info                              : Advanced Audio Codec
    Format profile                           : LC
    Codec ID                                 : 40
    Duration                                 : 29mn 46s
    Source duration                          : 29mn 46s
    Bit rate mode                            : Constant
    Bit rate                                 : 100 Kbps
    Nominal bit rate                         : 128 Kbps
    Channel(s)                               : 2 channels
    Channel positions                        : Front: L R
    Sampling rate                            : 48.0 KHz
    Compression mode                         : Lossy
    Stream size                              : 21.4 MiB (12%)
    Source stream size                       : 21.4 MiB (12%)
    Language                                 : English
    Encoded date                             : UTC 2009-07-24 18:33:57
    Tagged date                              : UTC 2009-07-24 18:36:11
#777Треклист:
"Fall Of Creation" (1990)
1. Shroud Of Silence
2. Fall Of Creation
3. Degenerate
4. Alter The Red
5. Instrumental
6. The Afterlife
"Sickness" (1988)
7. Side Winder
8. Typhoid Mary
9. Bats In The Belfry
10. The Elegy
"Focus Of Terror" (1987)
11. The End
12. You Die
13. Dead Or Alive
14. Buried Alive
Код:
Exact Audio Copy V1.5 from 20. February 2020
EAC extraction logfile from 22. June 2020, 21:35
Solitude / Demo Collection
Used drive  : ASUS    DRW-24B1ST   Adapter: 1  ID: 1
Read mode               : Secure
Utilize accurate stream : Yes
Defeat audio cache      : Yes
Make use of C2 pointers : No
Read offset correction                      : 6
Overread into Lead-In and Lead-Out          : No
Fill up missing offset samples with silence : Yes
Delete leading and trailing silent blocks   : No
Null samples used in CRC calculations       : Yes
Used interface                              : Native Win32 interface for Win NT & 2000
Used output format              : User Defined Encoder
Selected bitrate                : 1024 kBit/s
Quality                         : High
Add ID3 tag                     : No
Command line compressor         : C:\Program Files (x86)\Exact Audio Copy\Flac\flac.exe
Additional command line options : -V -8 -T "Genre=%genre%" -T "Artist=%artist%" -T "Title=%title%" -T "Album=%albumtitle%" -T "Date=%year%" -T "Tracknumber=%tracknr%" -T "Comment=%comment%" %source%
TOC of the extracted CD
     Track |   Start  |  Length  | Start sector | End sector
    ---------------------------------------------------------
        1  |  0:00.00 |  4:32.01 |         0    |    20400
        2  |  4:32.01 |  4:06.43 |     20401    |    38893
        3  |  8:38.44 |  5:14.48 |     38894    |    62491
        4  | 13:53.17 |  5:36.18 |     62492    |    87709
        5  | 19:29.35 |  1:00.74 |     87710    |    92283
        6  | 20:30.34 |  4:59.20 |     92284    |   114728
        7  | 25:29.54 |  5:24.74 |    114729    |   139102
        8  | 30:54.53 |  5:17.21 |    139103    |   162898
        9  | 36:11.74 |  4:56.35 |    162899    |   185133
       10  | 41:08.34 |  4:39.12 |    185134    |   206070
       11  | 45:47.46 |  4:47.61 |    206071    |   227656
       12  | 50:35.32 |  3:18.44 |    227657    |   242550
       13  | 53:54.01 |  4:00.03 |    242551    |   260553
       14  | 57:54.04 |  5:44.06 |    260554    |   286359
       15  | 66:10.10 | 11:06.46 |    297760    |   347755
Range status and errors
Selected range
     Filename F:\Ginger Devil\Solitude - Poisoned Population (2009 Remaster)\CD-2 - Demo Collection (1987-1990)\Solitude - Demo Collection.wav
     Peak level 98.8 %
     Extraction speed 4.6 X
     Range quality 100.0 %
     Test CRC 7AB1C1B1
     Copy CRC 7AB1C1B1
     Copy OK
No errors occurred
AccurateRip summary
Track  1  accurately ripped (confidence 3)  [6A4E4576]  (AR v2)
Track  2  accurately ripped (confidence 3)  [149BBE7D]  (AR v2)
Track  3  accurately ripped (confidence 3)  [9BBE9918]  (AR v2)
Track  4  accurately ripped (confidence 3)  [12E0E440]  (AR v2)
Track  5  accurately ripped (confidence 3)  [86D886B6]  (AR v2)
Track  6  accurately ripped (confidence 3)  [E8CA0555]  (AR v2)
Track  7  accurately ripped (confidence 3)  [B9AA2849]  (AR v2)
Track  8  accurately ripped (confidence 3)  [4A24347B]  (AR v2)
Track  9  accurately ripped (confidence 3)  [23C75F19]  (AR v2)
Track 10  accurately ripped (confidence 3)  [69180BE1]  (AR v2)
Track 11  accurately ripped (confidence 3)  [E96F32BB]  (AR v2)
Track 12  accurately ripped (confidence 3)  [EDDCCD0F]  (AR v2)
Track 13  accurately ripped (confidence 3)  [B91E50B9]  (AR v2)
Track 14  accurately ripped (confidence 3)  [33F9D65C]  (AR v2)
All tracks accurately ripped
End of status report
---- CUETools DB Plugin V2.1.6
[CTDB TOCID: eupzKyIy4dC_P01b97L1xM21F.Y-] found
Submit result: already submitted
Track | CTDB Status
  1   | (5/5) Accurately ripped
  2   | (5/5) Accurately ripped
  3   | (5/5) Accurately ripped
  4   | (5/5) Accurately ripped
  5   | (5/5) Accurately ripped
  6   | (5/5) Accurately ripped
  7   | (5/5) Accurately ripped
  8   | (5/5) Accurately ripped
  9   | (5/5) Accurately ripped
 10   | (5/5) Accurately ripped
 11   | (5/5) Accurately ripped
 12   | (5/5) Accurately ripped
 13   | (5/5) Accurately ripped
 14   | (5/5) Accurately ripped
==== Log checksum A555E178D2D42A2867F94B99D9F5A5D9DE2DF2701079134FACEFF0D23F061F6C ====
Код:
REM GENRE "Thrash Metal"
REM DATE 1987-1990
REM DISCID CA121C0F
REM COMMENT "ExactAudioCopy v1.5"
PERFORMER "Solitude"
TITLE "Demo Collection"
REM COMPOSER "Solitude"
FILE "Solitude - Demo Collection.flac" WAVE
  TRACK 01 AUDIO
    TITLE "Shroud Of Silence (Fall Of Creation demo - 1990)"
    PERFORMER "Solitude"
    REM COMPOSER "Solitude"
    INDEX 01 00:00:00
  TRACK 02 AUDIO
    TITLE "Fall Of Creation (Fall Of Creation demo - 1990)"
    PERFORMER "Solitude"
    REM COMPOSER "Solitude"
    INDEX 01 04:32:01
  TRACK 03 AUDIO
    TITLE "Degenerate (Fall Of Creation demo - 1990)"
    PERFORMER "Solitude"
    REM COMPOSER "Solitude"
    INDEX 01 08:38:44
  TRACK 04 AUDIO
    TITLE "Alter The Red (Fall Of Creation demo - 1990)"
    PERFORMER "Solitude"
    REM COMPOSER "Solitude"
    INDEX 01 13:53:17
  TRACK 05 AUDIO
    TITLE "Instrumental (Fall Of Creation demo - 1990)"
    PERFORMER "Solitude"
    REM COMPOSER "Solitude"
    INDEX 01 19:29:35
  TRACK 06 AUDIO
    TITLE "The Afterlife (Fall Of Creation demo - 1990)"
    PERFORMER "Solitude"
    REM COMPOSER "Solitude"
    INDEX 01 20:30:34
  TRACK 07 AUDIO
    TITLE "Side Winder (Sickness demo - 1988)"
    PERFORMER "Solitude"
    REM COMPOSER "Solitude"
    INDEX 01 25:29:54
  TRACK 08 AUDIO
    TITLE "Typhoid Mary (Sickness demo - 1988)"
    PERFORMER "Solitude"
    REM COMPOSER "Solitude"
    INDEX 01 30:54:53
  TRACK 09 AUDIO
    TITLE "Bats In The Belfry (Sickness demo - 1988)"
    PERFORMER "Solitude"
    REM COMPOSER "Solitude"
    INDEX 01 36:11:74
  TRACK 10 AUDIO
    TITLE "The Elegy (Sickness demo - 1988)"
    PERFORMER "Solitude"
    REM COMPOSER "Solitude"
    INDEX 01 41:08:34
  TRACK 11 AUDIO
    TITLE "The End (Focus Of Terror demo - 1987)"
    PERFORMER "Solitude"
    REM COMPOSER "Solitude"
    INDEX 01 45:47:46
  TRACK 12 AUDIO
    TITLE "You Die (Focus Of Terror demo - 1987)"
    PERFORMER "Solitude"
    REM COMPOSER "Solitude"
    INDEX 01 50:35:32
  TRACK 13 AUDIO
    TITLE "Dead Or Alive (Focus Of Terror demo - 1987)"
    PERFORMER "Solitude"
    REM COMPOSER "Solitude"
    INDEX 01 53:54:01
  TRACK 14 AUDIO
    TITLE "Buried Alive (Focus Of Terror demo - 1987)"
    PERFORMER "Solitude"
    REM COMPOSER "Solitude"
    INDEX 01 57:54:04
    Pictures
    Live @ The Empire Rock Club (Philadelphia, PA)
    - Cerebral Damage
    - Typhoid Mary
    - War Pigs
    Код:
    General
    Complete name                            : F:\Ginger Devil\Solitude - Poisoned Population (2009 Remaster)\Enhanced CD-2\CDPLUS\SOLITUDE_PHILADELPHIA_PA.mov
    Format                                   : MPEG-4
    Format profile                           : QuickTime
    Codec ID                                 : qt
    File size                                : 96.1 MiB
    Duration                                 : 17mn 9s
    Overall bit rate                         : 784 Kbps
    Encoded date                             : UTC 2009-07-24 19:24:47
    Tagged date                              : UTC 2009-07-24 19:24:57
    Writing library                          : Apple QuickTime
    Video
    ID                                       : 2
    Format                                   : AVC
    Format/Info                              : Advanced Video Codec
    Format profile                           : Main@L3.0
    Format settings, CABAC                   : No
    Format settings, ReFrames                : 2 frames
    Codec ID                                 : avc1
    Codec ID/Info                            : Advanced Video Coding
    Duration                                 : 17mn 9s
    Bit rate                                 : 678 Kbps
    Width                                    : 480 pixels
    Height                                   : 360 pixels
    Display aspect ratio                     : 4:3
    Frame rate mode                          : Constant
    Frame rate                               : 29.970 fps
    Color space                              : YUV
    Chroma subsampling                       : 4:2:0
    Bit depth                                : 8 bits
    Scan type                                : Progressive
    Bits/(Pixel*Frame)                       : 0.131
    Stream size                              : 83.1 MiB (86%)
    Language                                 : English
    Encoded date                             : UTC 2009-07-24 19:23:41
    Tagged date                              : UTC 2009-07-24 19:24:57
    Color primaries                          : BT.601 NTSC
    Transfer characteristics                 : BT.709
    Matrix coefficients                      : BT.601
    Audio
    ID                                       : 1
    Format                                   : AAC
    Format/Info                              : Advanced Audio Codec
    Format profile                           : LC
    Codec ID                                 : 40
    Duration                                 : 17mn 9s
    Source duration                          : 17mn 9s
    Bit rate mode                            : Constant
    Bit rate                                 : 100 Kbps
    Nominal bit rate                         : 128 Kbps
    Channel(s)                               : 2 channels
    Channel positions                        : Front: L R
    Sampling rate                            : 48.0 KHz
    Compression mode                         : Lossy
    Stream size                              : 12.3 MiB (13%)
    Source stream size                       : 12.3 MiB (13%)
    Language                                 : English
    Encoded date                             : UTC 2009-07-24 19:23:41
    Tagged date                              : UTC 2009-07-24 19:24:57
Правила, инструкции, FAQ!!!
Торрент  Добавлен [27 июн 2020, 14:22] Скачать торрент Магнет ссылка
Скачать торрент
[ Размер 16.36 КБ / Просмотров 4 ]

Статус
Проверен 
 
Размер  1.11 ГБ
Приватный: Нет (DHT включён)
.torrent скачан  1
 


     Отправить личное сообщение
   
Страница 1 из 1
Показать сообщения за:  Поле сортировки  
Начать новую тему Ответить на тему


Сейчас этот форум просматривают: нет зарегистрированных пользователей и гости: 1


Вы не можете начинать темы
Вы не можете отвечать на сообщения
Вы не можете редактировать свои сообщения
Вы не можете удалять свои сообщения
Вы не можете добавлять вложения

Перейти:  
cron