Начать новую тему Ответить на тему
Статистика раздачи
Размер: 460.92 МБ | Добавлен: 26 июн 2020, 16:57 | Скачали: 0
Сидеров: 0  [0 байт/сек]    Личеров: 0  [0 байт/сек]
Пред. тема | След. тема 

Автор
Сообщение

СообщениеДобавлено: 26 июн 2020, 16:57 

Ответить с цитатой 

Cubanate - Antimatter
Жанр: Techno, Industrial
Страна-производитель диска: Czech Republic
Год издания диска: 1995
Издатель (лейбл): CBM. Licensed from Dynamica Germany
Номер по каталогу: DY 1-2UX
Аудио кодек: FLAC (*.flac)
Тип рипа: image+.cue
Битрейт аудио: lossless
Продолжительность: 66:09
Источник (релизер): Рип собственный
Наличие сканов в содержимом раздачи: нет
Треклист:
1.Body Burn
2.Angeldust
3.Autonomy
4.Metal (D-Code Hard Mix)
5.Junky
6.Blackout
7.Exert / Disorder
8.Kill Or Cure
9.Body Burn (D-Code Club Mix)
10.Angeltrance (D-Code Mix)
11.Junky (D-Code Industriance Mix)
12.Body Burn (Joolz Extended Mix)
Код:
Exact Audio Copy V0.99 prebeta 5 from 4. May 2009
Отчёт EAC об извлечении, выполненном 22. октября 2010, 13:34
Cubanate / Antimatter
Дисковод: HL-DT-STDVD-RAM GSA-H20N   Adapter: 3  ID: 0
Режим чтения                 : Достоверность
Использование точного потока : Да
Отключение кэша аудио        : Да
Использование указателей C2  : Нет
Коррекция смещения при чтении                     : 102
Способность читать области Lead-in и Lead-out     : Нет
Заполнение пропущенных сэмплов тишиной            : Да
Удаление блоков с тишиной в начале и конце        : Нет
При вычислениях CRC использовались нулевые сэмплы : Да
Интерфейс                                         : Установленный внешний ASPI-интерфейс
Выходной формат          : Пользовательский кодировщик
Выбранный битрейт        : 128 kBit/s
Качество                 : Высокий
Добавление ID3-тэга      : Нет
Утилита сжатия           : C:\Program Files\Exact Audio Copy\Flac\flac.exe
Дополнительные параметры : -8 -V %s
TOC извлечённого CD
     Трек |   Старт  | Длительность | Начальный сектор | Конечный сектор
    ---------------------------------------------------------------------
       1  |  0:00.32 |    3:53.65   |          32      |      17571
       2  |  3:54.22 |    6:29.48   |       17572      |      46794
       3  | 10:23.70 |    4:35.72   |       46795      |      67491
       4  | 14:59.67 |    6:16.68   |       67492      |      95759
       5  | 21:16.60 |    4:53.17   |       95760      |     117751
       6  | 26:10.02 |    5:02.05   |      117752      |     140406
       7  | 31:12.07 |    4:44.35   |      140407      |     161741
       8  | 35:56.42 |    3:46.18   |      161742      |     178709
       9  | 39:42.60 |    5:08.20   |      178710      |     201829
      10  | 44:51.05 |    6:59.57   |      201830      |     233311
      11  | 51:50.62 |    9:21.65   |      233312      |     275451
      12  | 61:12.52 |    4:56.40   |      275452      |     297691
Характеристики диапазона извлечения и сообщения об ошибках
Выбранный диапазон
     Имя файла C:\Documents and Settings\гоша\Рабочий стол\Cubanate - Antimatter.wav
     Пиковый уровень 100.0 %
     Качество диапазона 100.0 %
     CRC теста 96789D50
     CRC копии 96789D50
     Копирование... OK
Ошибок не произошло
AccurateRip: сводка
Трек  1  точность не определена (достоверность 6)  [9652F092], AccurateRip вернул [4046E71B]
Трек  2  точность не определена (достоверность 6)  [FF906791], AccurateRip вернул [4CBB4A31]
Трек  3  точность не определена (достоверность 6)  [8EA1668F], AccurateRip вернул [FF610520]
Трек  4  точность не определена (достоверность 6)  [736D6842], AccurateRip вернул [DE1AA3F3]
Трек  5  точность не определена (достоверность 6)  [F7877A37], AccurateRip вернул [43B9C2C0]
Трек  6  точность не определена (достоверность 6)  [B30952FB], AccurateRip вернул [41B3567E]
Трек  7  точность не определена (достоверность 6)  [B63911BA], AccurateRip вернул [8FBC014B]
Трек  8  точность не определена (достоверность 6)  [07AE2CA6], AccurateRip вернул [152A3CE2]
Трек  9  точность не определена (достоверность 6)  [DC029046], AccurateRip вернул [05A17014]
Трек 10  точность не определена (достоверность 5)  [6C85EB6B], AccurateRip вернул [692C05F7]
Трек 11  точность не определена (достоверность 6)  [E99013DF], AccurateRip вернул [C63953ED]
Трек 12  точность не определена (достоверность 6)  [BA5E5A19], AccurateRip вернул [8EF00061]
Ни один трек не прошёл проверки на точность
В вашей базе может быть иной вариант штамповки диска
Конец отчёта
Правила, инструкции, FAQ!!!
Торрент  Добавлен [26 июн 2020, 16:57] Скачать торрент Магнет ссылка
Скачать торрент
[ Размер 18.59 КБ / Просмотров 5 ]

Статус
Проверен 
 
Размер  460.92 МБ
Приватный: Нет (DHT включён)
.torrent скачан  0
 


     Отправить личное сообщение
   
Страница 1 из 1
Показать сообщения за:  Поле сортировки  
Начать новую тему Ответить на тему


Сейчас этот форум просматривают: нет зарегистрированных пользователей и гости: 0


Вы не можете начинать темы
Вы не можете отвечать на сообщения
Вы не можете редактировать свои сообщения
Вы не можете удалять свои сообщения
Вы не можете добавлять вложения

Перейти:  
cron