Начать новую тему Ответить на тему
Статистика раздачи
Размер: 566.16 МБ | Добавлен: 26 июн 2020, 17:36 | Скачали: 0
Сидеров: 0  [0 байт/сек]    Личеров: 0  [0 байт/сек]
Пред. тема | След. тема 

Автор
Сообщение

СообщениеДобавлено: 26 июн 2020, 17:36 

Ответить с цитатой 

Neikka RPM - Chain Letters (Limited Edition) 2CD Box Set
Жанр: Techno, Electro, Industrial
Страна-производитель: Belgium
Год издания: 2011
Лейбл: Alfa Matrix
Номер по каталогу: AM2124DCD
Аудиокодек: FLAC (*.flac)
Тип рипа: image+.cue
Битрейт аудио: lossless
Продолжительность: 43:05 / 42:14
Источник: Оригинальный альбом
Наличие сканов: В содержимом раздачи
Треклист:
Disc 1 - Chain Letters
01. Warped
02. Mind On The Trigger
03. Hunt You Down
04. Kingdom Of Fire
05. Wish You Were Here
06. Here's Your Revolution (Rebuild & Reload)
07. Umbrae Sub Noctem
08. Thrust
09. No One Is Beautiful
10. Sum Corvus
11. Everlasting
12. I Feel Your Pain
Disc 2 - Deceive & Destroy
01. Warped Version II
02. Umbrae Sub Noctem (DJ Blackout Remix)
03. Kingdom Of Fire (Memmaker Remix)
04. Warped (Firemensch Remix)
05. Umbrae Sub Noctem Version II
06. Hunt You Down (Ex.Es Remix)
07. Thrust Version II
08. Warped (Katz & Maus DCTB Version)
09. Kingdom Of Fire (Red Industrie Remix)
10. Thrust (Serrated Mix By Syndika Zero)
Код:
Exact Audio Copy V1.0 beta 3 from 29. August 2011
Отчёт EAC об извлечении, выполненном 8. мая 2012, 3:14
Neikka RPM / Chain Letters
Дисковод: Optiarc DVD RW AD-7190A   Adapter: 0  ID: 0
Режим чтения                 : Достоверность
Использование точного потока : Да
Отключение кэша аудио        : Да
Использование указателей C2  : Нет
Коррекция смещения при чтении                     : 6
Способность читать области Lead-in и Lead-out     : Нет
Заполнение пропущенных сэмплов тишиной            : Да
Удаление блоков с тишиной в начале и конце        : Нет
При вычислениях CRC использовались нулевые сэмплы : Да
Интерфейс                                         : Встроенный Win32-интерфейс для Win NT/2000
Выходной формат          : Пользовательский кодировщик
Выбранный битрейт        : 896 kBit/s
Качество                 : Высокий
Добавление ID3-тега      : Нет
Утилита сжатия           : C:\Program Files (x86)\Exact Audio Copy\Flac\flac.exe
Дополнительные параметры : -V -8 -T "Date=%year%" -T "Genre=%genre%" -T "Artist=%artist%" -T "Album=%albumtitle%" %source%
TOC извлечённого CD
     Трек |   Старт  | Длительность | Начальный сектор | Конечный сектор
    ---------------------------------------------------------------------
       1  |  0:00.00 |    3:26.73   |           0      |      15522
       2  |  3:26.73 |    3:27.21   |       15523      |      31068
       3  |  6:54.19 |    3:32.03   |       31069      |      46971
       4  | 10:26.22 |    3:30.73   |       46972      |      62794
       5  | 13:57.20 |    3:41.69   |       62795      |      79438
       6  | 17:39.14 |    4:09.70   |       79439      |      98183
       7  | 21:49.09 |    3:34.22   |       98184      |     114255
       8  | 25:23.31 |    3:48.07   |      114256      |     131362
       9  | 29:11.38 |    3:54.60   |      131363      |     148972
      10  | 33:06.23 |    3:21.70   |      148973      |     164117
      11  | 36:28.18 |    3:41.12   |      164118      |     180704
      12  | 40:09.30 |    2:56.28   |      180705      |     193932
Характеристики диапазона извлечения и сообщения об ошибках
Выбранный диапазон
     Имя файла J:\Neikka RPM - 2011 - Chain Letters (Limited Edition) 2CD Box Set\Neikka RPM - CD1 Chain Letters.wav
     Пиковый уровень 99.7 %
     Скорость извлечения 7.1 X
     Качество диапазона 100.0 %
     CRC теста 4CE69A7A
     CRC копии 4CE69A7A
     Копирование... OK
Ошибок не произошло
AccurateRip: сводка
Трек  1  : извлечено точно (доверие 1)  [04976C10]  (AR v2)
Трек  2  : извлечено точно (доверие 1)  [E2C5366A]  (AR v2)
Трек  3  : извлечено точно (доверие 1)  [9609064C]  (AR v2)
Трек  4  : извлечено точно (доверие 1)  [74D5A731]  (AR v2)
Трек  5  : извлечено точно (доверие 1)  [BA6C6EC2]  (AR v2)
Трек  6  : извлечено точно (доверие 1)  [4AE88F39]  (AR v2)
Трек  7  : извлечено точно (доверие 1)  [327E0144]  (AR v2)
Трек  8  : извлечено точно (доверие 1)  [104336A9]  (AR v2)
Трек  9  : извлечено точно (доверие 1)  [47F85798]  (AR v2)
Трек 10  : извлечено точно (доверие 1)  [FE47F523]  (AR v2)
Трек 11  : извлечено точно (доверие 1)  [3EE3F677]  (AR v2)
Трек 12  : извлечено точно (доверие 1)  [648334A5]  (AR v2)
Все треки извлечены точно
Конец отчёта
==== Контрольная сумма отчёта 123C84B6239CF4DCA20491BA8CB06C436F7DF391C0B6205548CAFAC9C689F48E ====
Код:
Exact Audio Copy V1.0 beta 3 from 29. August 2011
Отчёт EAC об извлечении, выполненном 8. мая 2012, 3:31
Neikka RPM / Deceive & Destroy
Дисковод: Optiarc DVD RW AD-7190A   Adapter: 0  ID: 0
Режим чтения                 : Достоверность
Использование точного потока : Да
Отключение кэша аудио        : Да
Использование указателей C2  : Нет
Коррекция смещения при чтении                     : 6
Способность читать области Lead-in и Lead-out     : Нет
Заполнение пропущенных сэмплов тишиной            : Да
Удаление блоков с тишиной в начале и конце        : Нет
При вычислениях CRC использовались нулевые сэмплы : Да
Интерфейс                                         : Встроенный Win32-интерфейс для Win NT/2000
Выходной формат          : Пользовательский кодировщик
Выбранный битрейт        : 896 kBit/s
Качество                 : Высокий
Добавление ID3-тега      : Нет
Утилита сжатия           : C:\Program Files (x86)\Exact Audio Copy\Flac\flac.exe
Дополнительные параметры : -V -8 -T "Date=%year%" -T "Genre=%genre%" -T "Artist=%artist%" -T "Album=%albumtitle%" %source%
TOC извлечённого CD
     Трек |   Старт  | Длительность | Начальный сектор | Конечный сектор
    ---------------------------------------------------------------------
       1  |  0:00.00 |    3:45.62   |           0      |      16936
       2  |  3:45.62 |    5:06.29   |       16937      |      39915
       3  |  8:52.16 |    4:02.00   |       39916      |      58065
       4  | 12:54.16 |    3:58.07   |       58066      |      75922
       5  | 16:52.23 |    3:42.14   |       75923      |      92586
       6  | 20:34.37 |    4:27.42   |       92587      |     112653
       7  | 25:02.04 |    3:48.52   |      112654      |     129805
       8  | 28:50.56 |    4:41.08   |      129806      |     150888
       9  | 33:31.64 |    4:20.68   |      150889      |     170456
      10  | 37:52.57 |    4:22.14   |      170457      |     190120
Характеристики диапазона извлечения и сообщения об ошибках
Выбранный диапазон
     Имя файла J:\Neikka RPM - 2011 - Chain Letters (Limited Edition) 2CD Box Set\Neikka RPM - CD2 Deceive & Destroy.wav
     Пиковый уровень 100.0 %
     Скорость извлечения 7.1 X
     Качество диапазона 100.0 %
     CRC теста ADDFC81B
     CRC копии ADDFC81B
     Копирование... OK
Ошибок не произошло
AccurateRip: сводка
Трек  1  : извлечено точно (доверие 1)  [E49D46CE]  (AR v2)
Трек  2  : извлечено точно (доверие 1)  [6073F4F6]  (AR v2)
Трек  3  : извлечено точно (доверие 1)  [DFC54EA8]  (AR v2)
Трек  4  : извлечено точно (доверие 1)  [5F995AE6]  (AR v2)
Трек  5  : извлечено точно (доверие 1)  [03628471]  (AR v2)
Трек  6  : извлечено точно (доверие 1)  [CF46DBA0]  (AR v2)
Трек  7  : извлечено точно (доверие 1)  [B4AF99C6]  (AR v2)
Трек  8  : извлечено точно (доверие 1)  [CA3DA5DD]  (AR v2)
Трек  9  : извлечено точно (доверие 1)  [6026BFE5]  (AR v2)
Трек 10  : извлечено точно (доверие 1)  [F36933B9]  (AR v2)
Все треки извлечены точно
Конец отчёта
==== Контрольная сумма отчёта A7E7D71A34D3870ED5D66C2AB7D3AC3CE5CF3C2BAA6A1211F690903F11FEC483 ====
Правила, инструкции, FAQ!!!
Торрент  Добавлен [26 июн 2020, 17:36] Скачать торрент Магнет ссылка
Скачать торрент
[ Размер 12.92 КБ / Просмотров 4 ]

Статус
Проверен 
 
Размер  566.16 МБ
Приватный: Нет (DHT включён)
.torrent скачан  0
 


     Отправить личное сообщение
   
Страница 1 из 1
Показать сообщения за:  Поле сортировки  
Начать новую тему Ответить на тему


Сейчас этот форум просматривают: нет зарегистрированных пользователей и гости: 0


Вы не можете начинать темы
Вы не можете отвечать на сообщения
Вы не можете редактировать свои сообщения
Вы не можете удалять свои сообщения
Вы не можете добавлять вложения

Перейти:  
cron