Начать новую тему Ответить на тему
Статистика раздачи
Размер: 324.82 МБ | Добавлен: 26 июн 2020, 17:00 | Скачали: 0
Сидеров: 0  [0 байт/сек]    Личеров: 0  [0 байт/сек]
Пред. тема | След. тема 

Автор
Сообщение

СообщениеДобавлено: 26 июн 2020, 17:00 

Ответить с цитатой 

Reaper - Angst EP
Жанр: TBM, Industrial
Год выпуска диска: 2005
Производитель диска: Швейцария
Аудио кодек: FLAC
Тип рипа: image+.cue
Битрейт аудио: lossless
Продолжительность: 36:36.01
Трэклист:
01. Jagd
02. Angst
03. Daemon
04. Totengraber (Club Edit)
05. Angst (Soman Remix)
06. Totengraber
07. Daemon (Gudfried Remix by Heimataerde)
08. Weltfremd
09. Verloren
Exact Audio Copy V0.99 prebeta 4 from 23. January 2008
Отчёт EAC об извлечении, выполненном 8. сентября 2008, 8:49
Reaper / Angst
Дисковод: PIONEER DVD-RW DVR-111D Adapter: 0 ID: 0
Режим чтения : Достоверность
Использование точного потока : Да
Отключение кэша аудио : Да
Использование указателей C2 : Нет
Коррекция смещения при чтении : 48
Способность читать области Lead-in и Lead-out : Нет
Заполнение пропущенных сэмплов тишиной : Да
Удаление блоков с тишиной в начале и конце : Нет
При вычислениях CRC использовались нулевые сэмплы : Да
Интерфейс : Встроенный Win32-интерфейс для Win NT/2000
Выходной формат : Пользовательский кодировщик
Выбранный битрейт : 1024 kBit/s
Качество : Высокий
Добавление ID3-тэга : Нет
Утилита сжатия : C:\Program Files\Exact Audio Copy\FLAC\FLAC.EXE
Дополнительные параметры : -8 -V -T "ARTIST=%a" -T "TITLE=%t" -T "ALBUM=%g" -T "DATE=%y" -T "TRACKNUMBER=%n" -T "GENRE=%m" -T "COMMENT=%e" %s -o %d
TOC извлечённого CD
Трек | Старт | Длительность | Начальный сектор | Конечный сектор
---------------------------------------------------------------------
1 | 0:00.00 | 5:14.56 | 0 | 23605
2 | 5:14.56 | 4:25.31 | 23606 | 43511
3 | 9:40.12 | 4:47.37 | 43512 | 65073
4 | 14:27.49 | 4:54.32 | 65074 | 87155
5 | 19:22.06 | 4:04.34 | 87156 | 105489
6 | 23:26.40 | 5:29.25 | 105490 | 130189
7 | 28:55.65 | 3:46.40 | 130190 | 147179
8 | 32:42.30 | 3:53.46 | 147180 | 164700
9 | 36:36.01 | 3:56.34 | 164701 | 182434
Характеристики диапазона извлечения и сообщения об ошибках
Выбранный диапазон
Имя файла D:\123\t\Reaper - Angst [2005]\Reaper - Angst.wav
Пиковый уровень 99.8 %
Качество диапазона 100.0 %
CRC теста 01865202
CRC копии 01865202
Копирование... OK
Ошибок не произошло
AccurateRip: сводка
Трек 1 точность не определена (достоверность 2) [6696BED7], AccurateRip вернул [E4469F72]
Трек 2 точность не определена (достоверность 2) [33077FB7], AccurateRip вернул [996FFA2E]
Трек 3 точность не определена (достоверность 2) [2D8436B9], AccurateRip вернул [9EE274B0]
Трек 4 точность не определена (достоверность 2) [EAA634FA], AccurateRip вернул [7BFB8350]
Трек 5 точность не определена (достоверность 2) [7CBE916E], AccurateRip вернул [8054F55A]
Трек 6 точность не определена (достоверность 2) [674DF4FF], AccurateRip вернул [3FAAF092]
Трек 7 точность не определена (достоверность 2) [A0980B91], AccurateRip вернул [2647ABC7]
Трек 8 точность не определена (достоверность 2) [99FA978C], AccurateRip вернул [E5C38FE3]
Трек 9 точность не определена (достоверность 2) [35498616], AccurateRip вернул [D0721DDD]
Ни один трек не прошёл проверки на точность
В вашей базе может быть иной вариант штамповки диска
Конец отчёта
AUDIOCHECKER v2.0 beta (build 457) - by Dester - opdester@freemail.hu
~~~~~~~~~~~~~~~~~~~~~~~~~~~~~~~~~~
-=== DO NOT EDIT THIS FILE! ===-
Path: ...\Reaper - Angst [2005]
1 -=- Reaper - Angst.flac -=- CDDA (100%)
11706452
Доп. информация: REAPER – это соло-проект «человека в железной маске» — швейцарского музыканта Vasi Vallis, уже хорошо известного благодаря своим успешным электронным проектам FROZEN PLASMA и NAMNAMBULU. В REAPER музыкант сконцентрировал свой интерес к более жесткому индустриальному звучанию в стиле EBM / Dance-Industrial или TBM (Techno Body Music). REAPER дебютировал в 2005-м году с диском «Angst EP», который был выпущен ведущим немецким электро-лейблом Infacted Recordings и продержался 6 недель в DAC (Deutschland Alternative Chart), а также занял первую позицию в альтернативных чартах Дании.
Информация взята с http://www.dmfan.ru/viewnews.aspx?id=277
Правила, инструкции, FAQ!!!
Торрент  Добавлен [26 июн 2020, 17:00] Скачать торрент Магнет ссылка
Скачать торрент
[ Размер 13.32 КБ / Просмотров 3 ]

Статус
Проверен 
 
Размер  324.82 МБ
Приватный: Нет (DHT включён)
.torrent скачан  0
 


     Отправить личное сообщение
   
Страница 1 из 1
Показать сообщения за:  Поле сортировки  
Начать новую тему Ответить на тему


Сейчас этот форум просматривают: нет зарегистрированных пользователей и гости: 0


Вы не можете начинать темы
Вы не можете отвечать на сообщения
Вы не можете редактировать свои сообщения
Вы не можете удалять свои сообщения
Вы не можете добавлять вложения

Перейти:  
cron