Начать новую тему Ответить на тему
Статистика раздачи
Размер: 481.03 МБ | Добавлен: 26 июн 2020, 20:58 | Скачали: 0
Сидеров: 0  [0 байт/сек]    Личеров: 0  [0 байт/сек]
Пред. тема | След. тема 

Автор
Сообщение

СообщениеДобавлено: 26 июн 2020, 20:58 

Ответить с цитатой 

Scandy - 13 Ways To Masturbate

Жанр: TBM / Electro Industrial
Год выпуска диска: 2006
Производитель диска: Germany
Аудио кодек: APE
Тип рипа: image+.cue
Битрейт аудио: lossless
Продолжительность: 69:04
Трэклист:
1 Crush On A Robot (5:39)
2 Puppy Love (4:12)
3 Just Human (5:19)
4 U N Me (5:00)
5 Me So Horny (5:36)
6 Woofer Excursion Test (5:16)
7 Soul Free (5:45)
8 Iron Pitbull (4:51)
9 One Naked Nation (5:07)
10 I Saw God On TV (6:03)
11 Touch It (5:32)
12 We Are Celebrating (5:01)
13 Down (5:36)
Доп. информация: Masterhit Recordings; HIT 003
Scandy = Andy LaPlegua = Combichrist
Код:
Exact Audio Copy V0.99 prebeta 4 from 23. January 2008
EAC extraction logfile from 19. April 2009, 1:17
Scandy / 13 Ways To Masturbate
Used drive  : TEAC    DV-W520GS   Adapter: 5  ID: 0
Read mode               : Secure
Utilize accurate stream : Yes
Defeat audio cache      : Yes
Make use of C2 pointers : No
Read offset correction                      : 6
Overread into Lead-In and Lead-Out          : No
Fill up missing offset samples with silence : Yes
Delete leading and trailing silent blocks   : No
Null samples used in CRC calculations       : Yes
Used interface                              : Installed external ASPI interface
Used output format : Internal WAV Routines
Sample format      : 44.100 Hz; 16 Bit; Stereo
TOC of the extracted CD
     Track |   Start  |  Length  | Start sector | End sector
    ---------------------------------------------------------
        1  |  0:00.00 |  5:39.48 |         0    |    25472
        2  |  5:39.48 |  4:12.72 |     25473    |    44444
        3  |  9:52.45 |  5:19.39 |     44445    |    68408
        4  | 15:12.09 |  5:00.69 |     68409    |    90977
        5  | 20:13.03 |  5:36.33 |     90978    |   116210
        6  | 25:49.36 |  5:16.27 |    116211    |   139937
        7  | 31:05.63 |  5:45.09 |    139938    |   165821
        8  | 36:50.72 |  4:51.36 |    165822    |   187682
        9  | 41:42.33 |  5:07.49 |    187683    |   210756
       10  | 46:50.07 |  6:03.65 |    210757    |   238046
       11  | 52:53.72 |  5:32.15 |    238047    |   262961
       12  | 58:26.12 |  5:01.31 |    262962    |   285567
       13  | 63:27.43 |  5:36.53 |    285568    |   310820
Range status and errors
Selected range
   Filename K:\Scandy - 13 Ways To Masturbate\CDImage.wav
   Peak level 100.0 %
   Range quality 100.0 %
   Test CRC FC15DCF8
   Copy CRC FC15DCF8
   Copy OK
No errors occurred
AccurateRip summary
Track  1  accurately ripped (confidence 6)  [24E7C318]
Track  2  accurately ripped (confidence 6)  [B9804CA0]
Track  3  accurately ripped (confidence 6)  [2358E30E]
Track  4  accurately ripped (confidence 6)  [E7355482]
Track  5  accurately ripped (confidence 6)  [D1D346C6]
Track  6  accurately ripped (confidence 6)  [A9929CF2]
Track  7  accurately ripped (confidence 6)  [0CB08B79]
Track  8  accurately ripped (confidence 6)  [4343F3DB]
Track  9  accurately ripped (confidence 6)  [2C24CBA8]
Track 10  accurately ripped (confidence 6)  [82E04F54]
Track 11  accurately ripped (confidence 6)  [A2B83B56]
Track 12  accurately ripped (confidence 5)  [16C7135A]
Track 13  accurately ripped (confidence 6)  [5E088991]
All tracks accurately ripped
End of status report
Код:
AUDIOCHECKER v2.0 beta (build 457) - by Dester - opdester@freemail.hu
~~~~~~~~~~~~~~~~~~~~~~~~~~~~~~~~~~
-=== DO NOT EDIT THIS FILE! ===-
Path: ...\Scandy - 13 Ways To Masturbate
01 -=- CDImage.wav -=- CDDA (100%)
190127764
Cканы в комплекте.
Не забываем про спасибы
Правила, инструкции, FAQ!!!
Торрент  Добавлен [26 июн 2020, 20:58] Скачать торрент Магнет ссылка
Скачать торрент
[ Размер 19.79 КБ / Просмотров 8 ]

Статус
Проверен 
 
Размер  481.03 МБ
Приватный: Нет (DHT включён)
.torrent скачан  0
 


     Отправить личное сообщение
   
Страница 1 из 1
Показать сообщения за:  Поле сортировки  
Начать новую тему Ответить на тему


Сейчас этот форум просматривают: нет зарегистрированных пользователей и гости: 0


Вы не можете начинать темы
Вы не можете отвечать на сообщения
Вы не можете редактировать свои сообщения
Вы не можете удалять свои сообщения
Вы не можете добавлять вложения

Перейти:  
cron