Начать новую тему Ответить на тему
Статистика раздачи
Размер: 248.11 МБ | Добавлен: 24 ноя 2012, 23:16 | Скачали: 18
Сидеров: 544  [0 байт/сек]    Личеров: 0  [0 байт/сек]
Пред. тема | След. тема 

Автор
Сообщение

СообщениеДобавлено: 24 ноя 2012, 23:16 

Ответить с цитатой 

Название: TAI CHI - Музыка для тела и духа
Исполнитель: TAI CHI
Год: 2004
Жанр: Meditative
Страна: CHINA

Продолжительность: 0:50:03
Формат/Кодек: FLAC
Битрейт аудио: lossless


1. Entrada no templo 4:09
2. Pleno movimento 3:51
3. Espнrito dos vales 6:23
4. Tao 3:30
5. O chamado 5:12
6. Danзa dos ventos 6:56
7. Ensinamento 6:33
8. O trovгo, o sino e a chuva 5:43
9. Zen 3:10
10.Gesto presente 4:35


Дополнительная информация:
Exact Audio Copy V0.99 prebeta 4 from 23. January 2008

Отчёт EAC об извлечении, выполненном 29. сентября 2008, 6:51

Danilo Tomich / TAI CHI

Дисковод: PLEXTOR DVDR PX-716A Adapter: 0 ID: 1

Режим чтения : Достоверность
Использование точного потока : Да
Отключение кэша аудио : Да
Использование указателей C2 : Нет

Коррекция смещения при чтении : 30
Способность читать области Lead-in и Lead-out : Нет
Заполнение пропущенных сэмплов тишиной : Да
Удаление блоков с тишиной в начале и конце : Нет
При вычислениях CRC использовались нулевые сэмплы : Да
Интерфейс : Встроенный Win32-интерфейс для Win NT/2000

Выходной формат : Пользовательский кодировщик
Выбранный битрейт : 768 kBit/s
Качество : Высокий
Добавление ID3-тэга : Нет
Утилита сжатия : C:Program FilesExact Audio CopyFlacflac.exe
Дополнительные параметры : -8 -V -T "ARTIST=%a" -T "TITLE=%t" -T "ALBUM=%g" -T "DATE=%y" -T "TRACKNUMBER=%n" -T "GENRE=%m" -T "COMMENT=%e" %s -o %d

TOC извлечённого CD

Трек | Старт | Длительность | Начальный сектор | Конечный сектор
---------------------------------------------------------------------
1 | 0:00.00 | 4:09.05 | 0 | 18679
2 | 4:09.05 | 3:51.15 | 18680 | 36019
3 | 8:00.20 | 6:22.60 | 36020 | 64729
4 | 14:23.05 | 3:30.07 | 64730 | 80486
5 | 17:53.12 | 5:12.13 | 80487 | 103899
6 | 23:05.25 | 6:56.25 | 103900 | 135124
7 | 30:01.50 | 6:33.15 | 135125 | 164614
8 | 36:34.65 | 5:42.42 | 164615 | 190306
9 | 42:17.32 | 3:10.30 | 190307 | 204586
10 | 45:27.62 | 4:35.15 | 204587 | 225226

Характеристики диапазона извлечения и сообщения об ошибках

Выбранный диапазон

Имя файла J:темрDanilo Tomich - TAI CHI.wav

Пиковый уровень 98.8 %
Качество диапазона 100.0 %
CRC теста 4568CF59
CRC копии 4568CF59
Копирование... OK

Ошибок не произошло

AccurateRip: сводка

Трек 1 нет в базе данных
Трек 2 нет в базе данных
Трек 3 нет в базе данных
Трек 4 нет в базе данных
Трек 5 нет в базе данных
Трек 6 нет в базе данных
Трек 7 нет в базе данных
Трек 8 нет в базе данных
Трек 9 нет в базе данных
Трек 10 нет в базе данных

Ни одного трека нет в базе AccurateRip

Конец отчёта
[свернуть]





Исполнитель: Данило Томич (Danilo Tomich); Композитор: Корциолли
Правила, инструкции, FAQ!!!
Торрент  Добавлен [24 ноя 2012, 23:16] Скачать торрент Магнет ссылка
Скачать торрент
[ Размер 19.98 КБ / Просмотров 374 ]

Статус
Проверен 
 
Размер  248.11 МБ
Приватный: Нет (DHT включён)
.torrent скачан  18
 


     Отправить личное сообщение
   
Страница 1 из 1
Показать сообщения за:  Поле сортировки  
Начать новую тему Ответить на тему


Сейчас этот форум просматривают: нет зарегистрированных пользователей и гости: 0


Вы не можете начинать темы
Вы не можете отвечать на сообщения
Вы не можете редактировать свои сообщения
Вы не можете удалять свои сообщения
Вы не можете добавлять вложения

Перейти:  
cron