Начать новую тему Ответить на тему
Статистика раздачи
Размер: 428.5 МБ | Добавлен: 26 июн 2020, 17:00 | Скачали: 0
Сидеров: 0  [0 байт/сек]    Личеров: 0  [0 байт/сек]
Пред. тема | След. тема 

Автор
Сообщение

СообщениеДобавлено: 26 июн 2020, 17:00 

Ответить с цитатой 

Various Artists - We Will Follow / A Tribute to U2
Жанр: Synthpop, Industrial, Progressive House
Год выпуска диска: 1999
Производитель диска: US
Аудио кодек: FLAC
Тип рипа: tracks+.cue
Продолжительность: 1:02:51
Трэклист:
[04:56] 01. Heaven 17 - With or Without You
[04:59] 02. Information Society - One
[04:59] 03. Front Line Assembly with Tiffany - New Year's Day
[04:18] 04. Razed in Black - Pride
[04:24] 05. Dead Or Alive - Even Better Than the Real Thing
[03:36] 06. Spahn Ranch - I Will Follow
[04:59] 07. The Mission - All I Want Is You
[04:29] 08. The Electric Hellfire Club - Sunday Bloody Sunday
[04:29] 09. Rosetta Stone - October
[04:33] 10. Die Krupps - Numb
[03:46] 11. Silverbeam with Ann Louise - Where the Streets Have No Name
[04:52] 12. Bang Tango - Even Better Than the Real Thing [Julian Beeston Mix]
[03:24] 13. The Polecats - Desire
[05:00] 14. Intra-Venus - Discothèque [Suspiria Mix]
Exact Audio Copy V0.99 prebeta 4 from 23. January 2008
EAC extraction logfile from 6. May 2009, 7:56
Various Artists / We Will Follow: Tribute to U2
Used drive : PBDS CD-ROM DH-48N1P Adapter: 0 ID: 0
Read mode : Secure
Utilize accurate stream : Yes
Defeat audio cache : Yes
Make use of C2 pointers : No
Read offset correction : 6
Overread into Lead-In and Lead-Out : No
Fill up missing offset samples with silence : Yes
Delete leading and trailing silent blocks : No
Null samples used in CRC calculations : No
Used interface : Native Win32 interface for Win NT & 2000
Gap handling : Appended to previous track
Used output format : User Defined Encoder
Selected bitrate : 128 kBit/s
Quality : High
Add ID3 tag : No
Command line compressor : D:\Exact Audio Copy\Flac\flac.exe
Additional command line options : -V -8 -T "artist=%a" -T "title=%t" -T "album=%g" -T "date=%y" -T "tracknumber=%n" -T "genre=%m" %s
TOC of the extracted CD
Track | Start | Length | Start sector | End sector
---------------------------------------------------------
1 | 0:00.00 | 4:56.51 | 0 | 22250
2 | 4:56.51 | 4:59.53 | 22251 | 44728
3 | 9:56.29 | 5:00.46 | 44729 | 67274
4 | 14:57.00 | 4:19.00 | 67275 | 86699
5 | 19:16.00 | 4:25.40 | 86700 | 106614
6 | 23:41.40 | 3:37.40 | 106615 | 122929
7 | 27:19.05 | 5:00.56 | 122930 | 145485
8 | 32:19.61 | 4:29.69 | 145486 | 165729
9 | 36:49.55 | 4:30.24 | 165730 | 186003
10 | 41:20.04 | 4:33.71 | 186004 | 206549
11 | 45:54.00 | 3:46.51 | 206550 | 223550
12 | 49:40.51 | 4:54.24 | 223551 | 245624
13 | 54:35.00 | 3:26.00 | 245625 | 261074
14 | 58:01.00 | 5:00.07 | 261075 | 283581
Track 1
Filename D:\mp3\a tribute to u2 - we will follow flac\Heaven 17 - We Will Follow- Tribute to U2 - 01 - With or Without You.wav
Pre-gap length 0:00:02.00
Peak level 98.9 %
Track quality 100.0 %
Test CRC DB7D696B
Copy CRC DB7D696B
Accurately ripped (confidence 3) [BB837531]
Copy OK
Track 2
Filename D:\mp3\a tribute to u2 - we will follow flac\Information Society - We Will Follow- Tribute to U2 - 02 - One.wav
Peak level 97.9 %
Track quality 100.0 %
Test CRC 8859CD7B
Copy CRC 8859CD7B
Accurately ripped (confidence 3) [081C51F7]
Copy OK
Track 3
Filename D:\mp3\a tribute to u2 - we will follow flac\Front Line Assembly with Tiffany - We Will Follow- Tribute to U2 - 03 - New Year's Day.wav
Pre-gap length 0:00:00.45
Peak level 95.4 %
Track quality 100.0 %
Test CRC E9ABE4CB
Copy CRC E9ABE4CB
Accurately ripped (confidence 3) [88437084]
Copy OK
Track 4
Filename D:\mp3\a tribute to u2 - we will follow flac\Razed in Black - We Will Follow- Tribute to U2 - 04 - Pride.wav
Pre-gap length 0:00:00.74
Peak level 95.7 %
Track quality 99.9 %
Test CRC 6367626B
Copy CRC 6367626B
Accurately ripped (confidence 3) [61EC5F86]
Copy OK
Track 5
Filename D:\mp3\a tribute to u2 - we will follow flac\Dead Or Alive - We Will Follow- Tribute to U2 - 05 - Even Better Than the Real Thing.wav
Pre-gap length 0:00:00.20
Peak level 97.7 %
Track quality 100.0 %
Test CRC 9EA5BD3D
Copy CRC 9EA5BD3D
Accurately ripped (confidence 3) [247924C0]
Copy OK
Track 6
Filename D:\mp3\a tribute to u2 - we will follow flac\Spahn Ranch - We Will Follow- Tribute to U2 - 06 - I Will Follow.wav
Pre-gap length 0:00:01.14
Peak level 77.7 %
Track quality 100.0 %
Test CRC AAE12948
Copy CRC AAE12948
Accurately ripped (confidence 3) [D2CE002E]
Copy OK
Track 7
Filename D:\mp3\a tribute to u2 - we will follow flac\The Mission - We Will Follow- Tribute to U2 - 07 - All I Want Is You.wav
Pre-gap length 0:00:00.73
Peak level 79.3 %
Track quality 100.0 %
Test CRC 01FB882C
Copy CRC 01FB882C
Accurately ripped (confidence 3) [8742314B]
Copy OK
Track 8
Filename D:\mp3\a tribute to u2 - we will follow flac\The Electric Hellfire Club - We Will Follow- Tribute to U2 - 08 - Sunday Bloody Sunday.wav
Pre-gap length 0:00:01.45
Peak level 97.8 %
Track quality 100.0 %
Test CRC 88511B19
Copy CRC 88511B19
Accurately ripped (confidence 2) [E119CCED]
Copy OK
Track 9
Filename D:\mp3\a tribute to u2 - we will follow flac\Rosetta Stone - We Will Follow- Tribute to U2 - 09 - October.wav
Pre-gap length 0:00:00.62
Peak level 79.4 %
Track quality 99.9 %
Test CRC E979397F
Copy CRC E979397F
Accurately ripped (confidence 3) [339929CD]
Copy OK
Track 10
Filename D:\mp3\a tribute to u2 - we will follow flac\Die Krupps - We Will Follow- Tribute to U2 - 10 - Numb.wav
Pre-gap length 0:00:00.45
Peak level 87.3 %
Track quality 99.9 %
Test CRC AFA5E1EA
Copy CRC AFA5E1EA
Accurately ripped (confidence 3) [2BA4243A]
Copy OK
Track 11
Filename D:\mp3\a tribute to u2 - we will follow flac\Silverbeam with Ann Louise - We Will Follow- Tribute to U2 - 11 - Where the Streets Have No Name.wav
Pre-gap length 0:00:00.45
Peak level 97.8 %
Track quality 100.0 %
Test CRC D125AD5E
Copy CRC D125AD5E
Accurately ripped (confidence 3) [B274FDBF]
Copy OK
Track 12
Filename D:\mp3\a tribute to u2 - we will follow flac\Bang Tango - We Will Follow- Tribute to U2 - 12 - Even Better Than the Real Thing [Julian Beeston Mix].wav
Pre-gap length 0:00:00.45
Peak level 98.3 %
Track quality 100.0 %
Test CRC 5213093B
Copy CRC 5213093B
Accurately ripped (confidence 2) [E30F8277]
Copy OK
Track 13
Filename D:\mp3\a tribute to u2 - we will follow flac\The Polecats - We Will Follow- Tribute to U2 - 13 - Desire.wav
Pre-gap length 0:00:01.43
Peak level 97.9 %
Track quality 100.0 %
Test CRC 127AE3DE
Copy CRC 127AE3DE
Accurately ripped (confidence 3) [DF778823]
Copy OK
Track 14
Filename D:\mp3\a tribute to u2 - we will follow flac\Intra-Venus - We Will Follow- Tribute to U2 - 14 - Discothиque [Suspiria Mix].wav
Pre-gap length 0:00:01.45
Peak level 87.2 %
Track quality 100.0 %
Test CRC 50B529A0
Copy CRC 50B529A0
Accurately ripped (confidence 3) [F1897583]
Copy OK
All tracks accurately ripped
No errors occurred
End of status report
REM ACCURATERIPID 00211527-015e3e53-dd0ec50e
REM COMMENT "CUETools generated dummy CUE sheet"
TITLE "We Will Follow: Tribute to U2"
REM DATE 1999
REM GENRE "Rock"
FILE "We Will Follow Tribute to U2 - 01 - Heaven 17 - With or Without You.flac" WAVE
TRACK 01 AUDIO
PERFORMER "Heaven 17"
TITLE "With or Without You"
INDEX 01 00:00:00
FILE "We Will Follow Tribute to U2 - 02 - Information Society - One.flac" WAVE
TRACK 02 AUDIO
PERFORMER "Information Society"
TITLE "One"
INDEX 01 00:00:00
TRACK 03 AUDIO
PERFORMER "Front Line Assembly with Tiffany"
TITLE "New Year's Day"
INDEX 00 04:59:19
FILE "We Will Follow Tribute to U2 - 03 - Front Line Assembly with Tiffany - New Year's Day.flac" WAVE
INDEX 01 00:00:00
TRACK 04 AUDIO
PERFORMER "Razed in Black"
TITLE "Pride"
INDEX 00 04:59:65
FILE "We Will Follow Tribute to U2 - 04 - Razed in Black - Pride.flac" WAVE
INDEX 01 00:00:00
TRACK 05 AUDIO
PERFORMER "Dead Or Alive"
TITLE "Even Better Than the Real Thing"
INDEX 00 04:18:60
FILE "We Will Follow Tribute to U2 - 05 - Dead Or Alive - Even Better Than the Real Thing.flac" WAVE
INDEX 01 00:00:00
TRACK 06 AUDIO
PERFORMER "Spahn Ranch"
TITLE "I Will Follow"
INDEX 00 04:24:29
FILE "We Will Follow Tribute to U2 - 06 - Spahn Ranch - I Will Follow.flac" WAVE
INDEX 01 00:00:00
TRACK 07 AUDIO
PERFORMER "The Mission"
TITLE "All I Want Is You"
INDEX 00 03:36:60
FILE "We Will Follow Tribute to U2 - 07 - The Mission - All I Want Is You.flac" WAVE
INDEX 01 00:00:00
TRACK 08 AUDIO
PERFORMER "The Electric Hellfire Club"
TITLE "Sunday Bloody Sunday"
INDEX 00 04:59:22
FILE "We Will Follow Tribute to U2 - 08 - The Electric Hellfire Club - Sunday Bloody Sunday.flac" WAVE
INDEX 01 00:00:00
TRACK 09 AUDIO
PERFORMER "Rosetta Stone"
TITLE "October"
INDEX 00 04:29:22
FILE "We Will Follow Tribute to U2 - 09 - Rosetta Stone - October.flac" WAVE
INDEX 01 00:00:00
TRACK 10 AUDIO
PERFORMER "Die Krupps"
TITLE "Numb"
INDEX 00 04:29:65
FILE "We Will Follow Tribute to U2 - 10 - Die Krupps - Numb.flac" WAVE
INDEX 01 00:00:00
TRACK 11 AUDIO
PERFORMER "Silverbeam with Ann Louise"
TITLE "Where the Streets Have No Name"
INDEX 00 04:33:37
FILE "We Will Follow Tribute to U2 - 11 - Silverbeam with Ann Louise - Where the Streets Have No Name.flac" WAVE
INDEX 01 00:00:00
TRACK 12 AUDIO
PERFORMER "Bang Tango"
TITLE "Even Better Than the Real Thing [Julian Beeston Mix]"
INDEX 00 03:46:17
FILE "We Will Follow Tribute to U2 - 12 - Bang Tango - Even Better Than the Real Thing [Julian Beeston Mix].flac" WAVE
INDEX 01 00:00:00
TRACK 13 AUDIO
PERFORMER "The Polecats"
TITLE "Desire"
INDEX 00 04:52:67
FILE "We Will Follow Tribute to U2 - 13 - The Polecats - Desire.flac" WAVE
INDEX 01 00:00:00
TRACK 14 AUDIO
PERFORMER "Intra-Venus"
TITLE "Discothèque [Suspiria Mix]"
INDEX 00 03:24:41
FILE "We Will Follow Tribute to U2 - 14 - Intra-Venus - Discothèque [Suspiria Mix].flac" WAVE
INDEX 01 00:00:00
Релиз взят с What.cd. Спасибо релизерам!
Правила, инструкции, FAQ!!!
Торрент  Добавлен [26 июн 2020, 17:00] Скачать торрент Магнет ссылка
Скачать торрент
[ Размер 18.88 КБ / Просмотров 4 ]

Статус
Проверен 
 
Размер  428.5 МБ
Приватный: Нет (DHT включён)
.torrent скачан  0
 


     Отправить личное сообщение
   
Страница 1 из 1
Показать сообщения за:  Поле сортировки  
Начать новую тему Ответить на тему


Сейчас этот форум просматривают: нет зарегистрированных пользователей и гости: 0


Вы не можете начинать темы
Вы не можете отвечать на сообщения
Вы не можете редактировать свои сообщения
Вы не можете удалять свои сообщения
Вы не можете добавлять вложения

Перейти:  
cron