Начать новую тему Ответить на тему
Статистика раздачи
Размер: 114.27 МБ | Добавлен: 26 июн 2020, 20:14 | Скачали: 0
Сидеров: 0  [0 байт/сек]    Личеров: 0  [0 байт/сек]
Пред. тема | След. тема 

Автор
Сообщение

СообщениеДобавлено: 26 июн 2020, 20:14 

Ответить с цитатой 

Unheilig & Project Pitchfork - Ich Will Leben (MCD)
Жанр: Synthgothic / Electro / Industrial
Год выпуска диска: 2006
Производитель диска: Germany
Аудио кодек: APE
Тип рипа: image+.cue
Битрейт аудио: lossless
Продолжительность: 13:49
Трэклист:
1 Ich Will Leben (Radio) (3:35)
2 Ich Will Leben (Club) (5:46) Remix - Henning Verlage
3 Ich Will Leben (Pitchfork-PS-Mix) (4:27) Remix - Peter Spilles
Доп. информация: Four.Rock; FRE CD 17
Код:
Exact Audio Copy V0.99 prebeta 4 from 23. January 2008
EAC extraction logfile from 22. November 2008, 20:25
Unheilig & Project Pitchfork / Ich Will Leben
Used drive  : PIONEER DVD-RW  DVR-112D   Adapter: 1  ID: 1
Read mode               : Secure
Utilize accurate stream : Yes
Defeat audio cache      : Yes
Make use of C2 pointers : No
Read offset correction                      : 48
Overread into Lead-In and Lead-Out          : No
Fill up missing offset samples with silence : Yes
Delete leading and trailing silent blocks   : No
Null samples used in CRC calculations       : Yes
Used interface                              : Installed external ASPI interface
Used output format : Internal WAV Routines
Sample format      : 44.100 Hz; 16 Bit; Stereo
TOC of the extracted CD
     Track |   Start  |  Length  | Start sector | End sector
    ---------------------------------------------------------
        1  |  0:00.00 |  3:35.55 |         0  |       16179
        2  |  3:35.55 |  5:46.18 |     16180  |       42147
        3  |  9:21.73 |  4:27.32 |     42148  |       62204
Range status and errors
Selected range
   Filename I:\Unheilig & Project Pitchfork - Ich Will Leben CD5\CDImage.wav
   Peak level 98.9 %
   Range quality 100.0 %
   Test CRC 2A7E5EFB
   Copy CRC 2A7E5EFB
   Copy OK
No errors occurred
AccurateRip summary
Track  1  accurately ripped (confidence 3)  [D4662DA8]
Track  2  accurately ripped (confidence 3)  [631DF530]
Track  3  accurately ripped (confidence 3)  [924A6294]
All tracks accurately ripped
End of status report
Код:
AUDIOCHECKER v2.0 beta (build 457) - by Dester - opdester@freemail.hu
~~~~~~~~~~~~~~~~~~~~~~~~~~~~~~~~~~
-=== DO NOT EDIT THIS FILE! ===-
Path: ...\Unheilig & Project Pitchfork - Ich Will Leben CD5
01 -=- CDImage.wav -=- CDDA (100%)
190127764
Правила, инструкции, FAQ!!!
Торрент  Добавлен [26 июн 2020, 20:14] Скачать торрент Магнет ссылка
Скачать торрент
[ Размер 18.57 КБ / Просмотров 7 ]

Статус
Проверен 
 
Размер  114.27 МБ
Приватный: Нет (DHT включён)
.torrent скачан  0
 


     Отправить личное сообщение
   
Страница 1 из 1
Показать сообщения за:  Поле сортировки  
Начать новую тему Ответить на тему


Сейчас этот форум просматривают: нет зарегистрированных пользователей и гости: 0


Вы не можете начинать темы
Вы не можете отвечать на сообщения
Вы не можете редактировать свои сообщения
Вы не можете удалять свои сообщения
Вы не можете добавлять вложения

Перейти:  
cron