Начать новую тему Ответить на тему
Статистика раздачи
Размер: 86.18 МБ | Добавлен: 26 мар 2019, 20:25 | Скачали: 0
Сидеров: 2  [0 байт/сек]    Личеров: 1  [0 байт/сек]
Пред. тема | След. тема 

Автор
Сообщение

СообщениеДобавлено: 26 мар 2019, 20:25 

Ответить с цитатой 

Sparks / The Number One Song In Heaven (Feat. Jimmy Somerville) (Maxi CD Single)
Жанр: Synth-Pop
Носитель: CDM
Страна-производитель диска: Europe
Год издания: 1997
Издатель (лейбл): Virgin
Номер по каталогу: 7243 8 94284 2 1
Страна: UK
Аудиокодек: FLAC (*.flac)
Тип рипа: tracks+.cue
Битрейт аудио: lossless
Продолжительность: 00:13:01
Источник (релизер): own rip
Наличие сканов в содержимом раздачи: нет
Треклист:
1. Sparks - The Number One Song In Heaven (Sparks Radio Edit) (3:33)
2. Sparks - The Number One Song In Heaven (Extended Version with Jimmy Sommerville) (5:21)
3. Sparks - The Number One Song In Heaven (Part Two) (4:07)
Код:
Exact Audio Copy V1.0 beta 3 from 29. August 2011
EAC extraction logfile from 5. January 2014, 15:15
Sparks / The Number One Song In Heaven
Used drive  : TSSTcorpCDDVDW SN-208BB   Adapter: 0  ID: 1
Read mode               : Secure
Utilize accurate stream : Yes
Defeat audio cache      : Yes
Make use of C2 pointers : No
Read offset correction                      : 6
Overread into Lead-In and Lead-Out          : No
Fill up missing offset samples with silence : Yes
Delete leading and trailing silent blocks   : No
Null samples used in CRC calculations       : Yes
Used interface                              : Native Win32 interface for Win NT & 2000
Gap handling                                : Appended to previous track
Used output format              : User Defined Encoder
Selected bitrate                : 1024 kBit/s
Quality                         : High
Add ID3 tag                     : No
Command line compressor         : C:\Program Files (x86)\Exact Audio Copy\Flac\flac.exe
Additional command line options : -8 -V -T "artist=%artist%" -T "title=%title%" -T "album=%albumtitle%" -T "date=%year%" -T "tracknumber=%tracknr%" -T "genre=%genre%" %source%
TOC of the extracted CD
     Track |   Start  |  Length  | Start sector | End sector
    ---------------------------------------------------------
        1  |  0:00.00 |  3:32.72 |         0    |    15971
        2  |  3:32.72 |  5:21.43 |     15972    |    40089
        3  |  8:54.40 |  4:07.15 |     40090    |    58629
Track  1
     Filename E:\Torrent\Sparks - The Number One Song In Heaven (Maxi CD Single)\01 The Number One Song In Heaven (Sparks Radio Edit).wav
     Pre-gap length  0:00:02.00
     Peak level 97.2 %
     Extraction speed 1.6 X
     Track quality 100.0 %
     Test CRC 68B2A488
     Copy CRC 68B2A488
     Accurately ripped (confidence 3)  [0396384F]  (AR v2)
     Copy OK
Track  2
     Filename E:\Torrent\Sparks - The Number One Song In Heaven (Maxi CD Single)\02 The Number One Song In Heaven (Extended Version with Jimmy Sommerville).wav
     Peak level 97.2 %
     Extraction speed 1.9 X
     Track quality 100.0 %
     Test CRC 41F4F7F0
     Copy CRC 41F4F7F0
     Accurately ripped (confidence 3)  [8EC9C31B]  (AR v2)
     Copy OK
Track  3
     Filename E:\Torrent\Sparks - The Number One Song In Heaven (Maxi CD Single)\03 The Number One Song In Heaven (Part Two).wav
     Peak level 97.2 %
     Extraction speed 2.1 X
     Track quality 100.0 %
     Test CRC B4C3FA74
     Copy CRC B4C3FA74
     Accurately ripped (confidence 3)  [48401821]  (AR v2)
     Copy OK
All tracks accurately ripped
No errors occurred
End of status report
==== Log checksum DC350ACDAAD18CA6F1147970997DC43DD64D93000B7670420B0A1BF35E76B3CE ====
Код:
REM GENRE Other
REM DISCID 17030D03
REM COMMENT "ExactAudioCopy v1.0b3"
CATALOG 0000000000000
PERFORMER "Sparks"
TITLE "The Number One Song In Heaven"
FILE "01 The Number One Song In Heaven (Sparks Radio Edit).wav" WAVE
  TRACK 01 AUDIO
    TITLE "The Number One Song In Heaven (Sparks Radio Edit)"
    PERFORMER "Sparks"
    ISRC DEG129700331
    INDEX 01 00:00:00
FILE "02 The Number One Song In Heaven (Extended Version with Jimmy Sommerville).wav" WAVE
  TRACK 02 AUDIO
    TITLE "The Number One Song In Heaven (Extended Version with Jimmy Sommerville)"
    PERFORMER "Sparks"
    ISRC DEG129700332
    INDEX 01 00:00:00
FILE "03 The Number One Song In Heaven (Part Two).wav" WAVE
  TRACK 03 AUDIO
    TITLE "The Number One Song In Heaven (Part Two)"
    PERFORMER "Sparks"
    ISRC DEG129700333
    INDEX 01 00:00:00
Правила, инструкции, FAQ!!!
Торрент  Добавлен [26 мар 2019, 20:25] Скачать торрент Магнет ссылка
Скачать торрент
[ Размер 14.4 КБ / Просмотров 5 ]

Статус
Проверен 
 
Размер  86.18 МБ
Приватный: Нет (DHT включён)
.torrent скачан  0
 


     Отправить личное сообщение
   
Страница 1 из 1
Показать сообщения за:  Поле сортировки  
Начать новую тему Ответить на тему


Сейчас этот форум просматривают: нет зарегистрированных пользователей и гости: 0


Вы не можете начинать темы
Вы не можете отвечать на сообщения
Вы не можете редактировать свои сообщения
Вы не можете удалять свои сообщения
Вы не можете добавлять вложения

Перейти:  
cron