Начать новую тему Ответить на тему
Статистика раздачи
Размер: 366.47 МБ | Добавлен: 26 июн 2020, 17:17 | Скачали: 0
Сидеров: 0  [0 байт/сек]    Личеров: 0  [0 байт/сек]
Пред. тема | След. тема 

Автор
Сообщение

СообщениеДобавлено: 26 июн 2020, 17:17 

Ответить с цитатой 

Analog Angel - Dischord
Жанр: Synth-pop, New Wave, EBM
Год выпуска диска: 2009
Производитель диска: Poland [Rage In Eden]
Аудио кодек: FLAC
Тип рипа: image+.cue
Битрейт аудио: lossless
Продолжительность: 55'05''
Трэклист:
1. Touched (4:05)
2. Television (5:08)
3. Shadows (3:46)
4. Ich Habe (2:53)
5. High Heels (4:14)
6. Down on Your Knees (4:23)
7. No Contest (4:47)
8. What We've Become (4:40)
9. Deviance (4:34)
10. Inner Innocence (Original Innocence) (7:04)
11. Down on Your Knees (Carpet Burn Reprise) (2:20)
12. Television (900 Channels Remix) (6:53)
Доп. информация: Хм... Польский лейбл не перестаёт удивлять, выпуская релизы, которых от них совершенно не ожидаешь. Так получилось и с дебютным альбомом трио из Глазго "Analog Angel". Аналоговая электроника образца 80-х годов и новые технологии, Depeche Mode, Nitzer Ebb и And One в одном флаконе (кстати вокал солиста временами ну уж очень смахивает на голос Dave Gahan). В общем сюрприз оказался довольно милым.
Код:
Exact Audio Copy V0.99 prebeta 5 from 4. May 2009
Отчёт EAC об извлечении, выполненном 13. февраля 2010, 15:59
Analog Angel / Dischord
Дисковод: PIONEER DVD-RW  DVR-115D   Adapter: 0  ID: 0
Режим чтения                 : Достоверность
Использование точного потока : Да
Отключение кэша аудио        : Да
Использование указателей C2  : Нет
Коррекция смещения при чтении                     : 48
Способность читать области Lead-in и Lead-out     : Нет
Заполнение пропущенных сэмплов тишиной            : Да
Удаление блоков с тишиной в начале и конце        : Нет
При вычислениях CRC использовались нулевые сэмплы : Да
Интерфейс                                         : Встроенный Win32-интерфейс для Win NT/2000
Выходной формат          : Пользовательский кодировщик
Выбранный битрейт        : 896 kBit/s
Качество                 : Высокий
Добавление ID3-тэга      : Нет
Утилита сжатия           : C:\Program Files\Exact Audio Copy\Flac\flac.exe
Дополнительные параметры : -8 -A tukey(0.25) -A gauss(0.1875) -b 4096 -V -T "artist=%a" -T "title=%t" -T "album=%g" -T "date=%y" -T "tracknumber=%n" -T "genre=%m" %s --sector-align
TOC извлечённого CD
     Трек |   Старт  | Длительность | Начальный сектор | Конечный сектор
    ---------------------------------------------------------------------
       1  |  0:00.00 |    4:04.61   |           0      |      18360
       2  |  4:04.61 |    5:07.50   |       18361      |      41435
       3  |  9:12.36 |    3:48.09   |       41436      |      58544
       4  | 13:00.45 |    2:54.60   |       58545      |      71654
       5  | 15:55.30 |    4:15.57   |       71655      |      90836
       6  | 20:11.12 |    4:25.40   |       90837      |     110751
       7  | 24:36.52 |    4:48.42   |      110752      |     132393
       8  | 29:25.19 |    4:42.44   |      132394      |     153587
       9  | 34:07.63 |    4:35.68   |      153588      |     174280
      10  | 38:43.56 |    7:05.58   |      174281      |     206213
      11  | 45:49.39 |    2:21.36   |      206214      |     216824
      12  | 48:11.00 |    6:53.60   |      216825      |     247859
Характеристики диапазона извлечения и сообщения об ошибках
Выбранный диапазон
     Имя файла D:\TORRENT UPLOAD\Analog Angel - 2009 - Dischord\Analog Angel - Dischord.wav
     Пиковый уровень 23.2 %
     Качество диапазона 99.9 %
     CRC теста 2853E228
     CRC копии 2853E228
     Копирование... OK
Ошибок не произошло
AccurateRip: сводка
Трек  1  нет в базе данных
Трек  2  нет в базе данных
Трек  3  нет в базе данных
Трек  4  нет в базе данных
Трек  5  нет в базе данных
Трек  6  нет в базе данных
Трек  7  нет в базе данных
Трек  8  нет в базе данных
Трек  9  нет в базе данных
Трек 10  нет в базе данных
Трек 11  нет в базе данных
Трек 12  нет в базе данных
Ни одного трека нет в базе AccurateRip
Конец отчёта
Код:
AUDIOCHECKER v1.2 - by Dester - opdester@freemail.hu
~~~~~~~~~~~~~~~~~
1 -===- D:\TORRENT UPLOAD\Analog Angel - 2009 - Dischord\Analog Angel - Dischord.flac
  Extracted successfully
  Conclusion: This track looks like CDDA with probability 99%
Сканы оформления прилагаются
Правила, инструкции, FAQ!!!
Торрент  Добавлен [26 июн 2020, 17:17] Скачать торрент Магнет ссылка
Скачать торрент
[ Размер 29.87 КБ / Просмотров 8 ]

Статус
Проверен 
 
Размер  366.47 МБ
Приватный: Нет (DHT включён)
.torrent скачан  0
 


     Отправить личное сообщение
   
Страница 1 из 1
Показать сообщения за:  Поле сортировки  
Начать новую тему Ответить на тему


Сейчас этот форум просматривают: нет зарегистрированных пользователей и гости: 0


Вы не можете начинать темы
Вы не можете отвечать на сообщения
Вы не можете редактировать свои сообщения
Вы не можете удалять свои сообщения
Вы не можете добавлять вложения

Перейти:  
cron