Начать новую тему Ответить на тему
Статистика раздачи
Размер: 1.25 ГБ | Добавлен: 26 июн 2020, 17:40 | Скачали: 0
Сидеров: 0  [0 байт/сек]    Личеров: 0  [0 байт/сек]
Пред. тема | След. тема 

Автор
Сообщение

СообщениеДобавлено: 26 июн 2020, 17:40 

Ответить с цитатой 

slowEarth - Дискография (3 студийных альбома)


Жанр: synth-pop, industrial, rock, electronica, jungle, drum-n-bass, trip-hop

Источник: What.CD

....drums, bass, synths, guitars, keys, vocals...
+++++ MUSIC FOR NOW +++++
Combining elements of rock, electronica, synth-pop, jungle, drum n bass, trip-hop, industrial, old-skool new wave, noize and atmosphere to create a blend of hypnotic rhythm with melody.
slowEarth's music keeps you wondering where it will take you next.
Heavy dance beats and analog synths, exaggerated with the accents of a solid rock band.
_-_--____----_--__--__----_-_____--_---_---------__-_-_--_-----
"While the electronic influences prevail, slowEarth throws in enough rock dynamics to keep things interesting, creating a chocolate-and-peanut-butter effect: two great tastes that taste great together."
||| Kevin Forest Moreau - Sunday Paper
"slowEarth is an engaging and often hypnotic band of rockers with an air of mystery who aren't afraid to venture over into prog and trip-hop territory."
||| Lee Smith - Creative Loafing
"slowEarth updates synth-pop with modern rock and dance music idioms for the new millennium."
||| Shane Harrison - Atlanta Journal-Constitution
"I absolutely love this stuff - it's very techno-popish, and shows a great mastery of electronic music. "
||| Steve Craig - WNNX Atlanta
"slowEarth, a promising live act with electronic leanings, who could be the next 'it' band for Atlanta's progressive hipsters."
||| Roni Sarig - Creative Loafing
"slow Earth manage to seep themselves in 1980s New Romantic Synth-Pop and sound contemporary at the same time, incorporating everything rhythm-wise from disco to techno. The band is careful not to get into a rhythm rut, and use wah-wah pedals over the layered rhythms and heavy dubs to help propel the music, which, by the way, they refer to as Electro Phreak Rock."
||| Linda Ryan - Listen.com
"In a musical climate where everything seems to sound more and more the same, slowEarth offer a refreshing change of pace...front man Zach Solem combines Ed Kowalczyk charisma, with Trent Reznor intensity and comes out with a style all his own, a live show not to be missed..."
||| Jay Harren - former Music Director/Host 99X Sunday School - WNNX
"somewhere between Tricky, Gary Numan, and Nine Inch Nails lies a very slowEarth."
||| Jonathan Williams - Music Editor - PRICK Magazine
"Mixing live instruments with sampled beats and noises, they had the audience swimming in an eclectic pool of sound waves. Melodic songwriting was balanced by adventurous experimentation and occasional punk-like outbursts of volume and energy. It's obvious that these guys are exploring the cutting edge, and that's always refreshing."
||| Chico - atlantamusicscene.com
"Pure and tribal with a dangerous energy."
||| Performance Magazine
"What kind of music is slowEarth? It is, quite simply, the type of music that you've been looking for- for any of your varying moods. The lyrics and sounds are passionate and clear. slowEarth is not bound by any one musical genre...they've created an addictive sound."
||| Derrick Peavey - University Signal
"An energetic performance that combined the fast-paced jungle rhythms of the rave scene with funked-up bass and edgy guitar, as well as Solem's philosophical take on things."
||| Jonathan Williams - The Scene
Members:
Zach Solem - Vocals & Programming
Joe Price - Guitars & Vocals & Programming
Richard Farmer - Drums
Ben Thomas - Keyboards & Programming
Источник: http://slowearth.com

Год выпуска диска: 2000
Производитель диска: USA
Аудио кодек: FLAC
Тип рипа: tracks+.cue
Битрейт аудио: lossless
Продолжительность: 63:18
Трэклист:
01 - Look
02 - Bang
03 - Rebirth
04 - Dried Up
05 - Rain
06 - Cut
07 - 60
08 - Love To Hate
09 - Dreamtime
10 - 6699
11 - 2deepblue
12 - Moot
13 - The Blame
14 - Go
Код:
Exact Audio Copy V0.99 prebeta 3 from 28. July 2007
EAC extraction logfile from 23. January 2010, 12:44
slowEarth / Cage
Used drive  : HL-DT-STDVDRAM GH22LS40   Adapter: 3  ID: 0
Read mode               : Secure
Utilize accurate stream : Yes
Defeat audio cache      : Yes
Make use of C2 pointers : No
Read offset correction                      : 667
Overread into Lead-In and Lead-Out          : No
Fill up missing offset samples with silence : Yes
Delete leading and trailing silent blocks   : No
Null samples used in CRC calculations       : Yes
Used interface                              : Native Win32 interface for Win NT & 2000
Gap handling                                : Appended to previous track
Used output format              : User Defined Encoder
Selected bitrate                : 320 kBit/s
Quality                         : High
Add ID3 tag                     : No
Command line compressor         : C:\Program Files (x86)\Exact Audio Copy\Flac\flac.exe
Additional command line options : -V -8 -T "artist=%a" -T "title=%t" -T "album=%g" -T "date=%y" -T "tracknumber=%n" -T "genre=%m" %s
TOC of the extracted CD
     Track |   Start  |  Length  | Start sector | End sector
    ---------------------------------------------------------
        1  |  0:00.00 |  3:55.50 |         0    |    17674
        2  |  3:55.50 |  2:50.07 |     17675    |    30431
        3  |  6:45.57 |  6:02.38 |     30432    |    57619
        4  | 12:48.20 |  4:37.72 |     57620    |    78466
        5  | 17:26.17 |  2:56.63 |     78467    |    91729
        6  | 20:23.05 |  4:53.05 |     91730    |   113709
        7  | 25:16.10 |  3:55.52 |    113710    |   131386
        8  | 29:11.62 |  4:30.19 |    131387    |   151655
        9  | 33:42.06 |  5:20.70 |    151656    |   175725
       10  | 39:03.01 |  6:30.50 |    175726    |   205025
       11  | 45:33.51 |  4:23.21 |    205026    |   224771
       12  | 49:56.72 |  5:10.19 |    224772    |   248040
       13  | 55:07.16 |  4:11.45 |    248041    |   266910
       14  | 59:18.61 |  3:59.07 |    266911    |   284842
Track  1
     Filename C:\tmp\01 - slowEarth - look.wav
     Pre-gap length  0:00:02.00
     Peak level 100.0 %
     Track quality 100.0 %
     Test CRC E5E3EC68
     Copy CRC E5E3EC68
     Track not present in AccurateRip database
     Copy OK
Track  2
     Filename C:\tmp\02 - slowEarth - bang.wav
     Peak level 99.9 %
     Track quality 100.0 %
     Test CRC B92F5C87
     Copy CRC B92F5C87
     Track not present in AccurateRip database
     Copy OK
Track  3
     Filename C:\tmp\03 - slowEarth - rebirth.wav
     Peak level 99.9 %
     Track quality 100.0 %
     Test CRC 1581FA5A
     Copy CRC 1581FA5A
     Track not present in AccurateRip database
     Copy OK
Track  4
     Filename C:\tmp\04 - slowEarth - dried up.wav
     Peak level 99.3 %
     Track quality 99.9 %
     Test CRC D01CFFF6
     Copy CRC D01CFFF6
     Track not present in AccurateRip database
     Copy OK
Track  5
     Filename C:\tmp\05 - slowEarth - Rain.wav
     Peak level 99.9 %
     Track quality 100.0 %
     Test CRC 0E5FC81A
     Copy CRC 0E5FC81A
     Track not present in AccurateRip database
     Copy OK
Track  6
     Filename C:\tmp\06 - slowEarth - cut.wav
     Peak level 97.7 %
     Track quality 100.0 %
     Test CRC 8BEF3341
     Copy CRC 8BEF3341
     Track not present in AccurateRip database
     Copy OK
Track  7
     Filename C:\tmp\07 - slowEarth - 60.wav
     Peak level 99.9 %
     Track quality 100.0 %
     Test CRC BA9E96E9
     Copy CRC BA9E96E9
     Track not present in AccurateRip database
     Copy OK
Track  8
     Filename C:\tmp\08 - slowEarth - love to hate.wav
     Peak level 97.7 %
     Track quality 100.0 %
     Test CRC 3DE81B15
     Copy CRC 3DE81B15
     Track not present in AccurateRip database
     Copy OK
Track  9
     Filename C:\tmp\09 - slowEarth - dreamtime.wav
     Peak level 99.9 %
     Track quality 100.0 %
     Test CRC 016CB0E6
     Copy CRC 016CB0E6
     Track not present in AccurateRip database
     Copy OK
Track 10
     Filename C:\tmp\10 - slowEarth - 6699.wav
     Peak level 99.9 %
     Track quality 100.0 %
     Test CRC FCDE738D
     Copy CRC FCDE738D
     Track not present in AccurateRip database
     Copy OK
Track 11
     Filename C:\tmp\11 - slowEarth - 2deepblue.wav
     Peak level 99.3 %
     Track quality 100.0 %
     Test CRC 9CE09BA7
     Copy CRC 9CE09BA7
     Track not present in AccurateRip database
     Copy OK
Track 12
     Filename C:\tmp\12 - slowEarth - moot.wav
     Peak level 99.9 %
     Track quality 100.0 %
     Test CRC 8329AA00
     Copy CRC 8329AA00
     Track not present in AccurateRip database
     Copy OK
Track 13
     Filename C:\tmp\13 - slowEarth - the blame.wav
     Peak level 99.9 %
     Track quality 100.0 %
     Test CRC 0D0E0A27
     Copy CRC 0D0E0A27
     Track not present in AccurateRip database
     Copy OK
Track 14
     Filename C:\tmp\14 - slowEarth - go.wav
     Peak level 99.9 %
     Track quality 99.9 %
     Test CRC 534D1954
     Copy CRC 534D1954
     Track not present in AccurateRip database
     Copy OK
None of the tracks are present in the AccurateRip database
No errors occurred
End of status report
Код:
REM GENRE Techno-Industrial
REM DATE 2000
REM DISCID BD0ED50E
REM COMMENT "ExactAudioCopy v0.99pb3"
PERFORMER "slowEarth"
TITLE "Cage"
FILE "01 - slowEarth - look.wav" WAVE
  TRACK 01 AUDIO
    TITLE "look"
    PERFORMER "slowEarth"
    INDEX 01 00:00:00
FILE "02 - slowEarth - bang.wav" WAVE
  TRACK 02 AUDIO
    TITLE "bang"
    PERFORMER "slowEarth"
    INDEX 01 00:00:00
FILE "03 - slowEarth - rebirth.wav" WAVE
  TRACK 03 AUDIO
    TITLE "rebirth"
    PERFORMER "slowEarth"
    INDEX 01 00:00:00
FILE "04 - slowEarth - dried up.wav" WAVE
  TRACK 04 AUDIO
    TITLE "dried up"
    PERFORMER "slowEarth"
    INDEX 01 00:00:00
FILE "05 - slowEarth - Rain.wav" WAVE
  TRACK 05 AUDIO
    TITLE "Rain"
    PERFORMER "slowEarth"
    INDEX 01 00:00:00
FILE "06 - slowEarth - cut.wav" WAVE
  TRACK 06 AUDIO
    TITLE "cut"
    PERFORMER "slowEarth"
    INDEX 01 00:00:00
FILE "07 - slowEarth - 60.wav" WAVE
  TRACK 07 AUDIO
    TITLE "60"
    PERFORMER "slowEarth"
    INDEX 01 00:00:00
FILE "08 - slowEarth - love to hate.wav" WAVE
  TRACK 08 AUDIO
    TITLE "love to hate"
    PERFORMER "slowEarth"
    INDEX 01 00:00:00
FILE "09 - slowEarth - dreamtime.wav" WAVE
  TRACK 09 AUDIO
    TITLE "dreamtime"
    PERFORMER "slowEarth"
    INDEX 01 00:00:00
FILE "10 - slowEarth - 6699.wav" WAVE
  TRACK 10 AUDIO
    TITLE "6699"
    PERFORMER "slowEarth"
    INDEX 01 00:00:00
FILE "11 - slowEarth - 2deepblue.wav" WAVE
  TRACK 11 AUDIO
    TITLE "2deepblue"
    PERFORMER "slowEarth"
    INDEX 01 00:00:00
FILE "12 - slowEarth - moot.wav" WAVE
  TRACK 12 AUDIO
    TITLE "moot"
    PERFORMER "slowEarth"
    INDEX 01 00:00:00
FILE "13 - slowEarth - the blame.wav" WAVE
  TRACK 13 AUDIO
    TITLE "the blame"
    PERFORMER "slowEarth"
    INDEX 01 00:00:00
FILE "14 - slowEarth - go.wav" WAVE
  TRACK 14 AUDIO
    TITLE "go"
    PERFORMER "slowEarth"
    INDEX 01 00:00:00
#777Год выпуска диска: 2003
Производитель диска: USA
Аудио кодек: FLAC
Тип рипа: tracks+.cue
Битрейт аудио: lossless
Продолжительность: 67:56
Трэклист:
01 - intro
02 - Try
03 - Girlz & Boyz
04 - Cut (Chord Mix)
05 - Go (Shroom Mix)
06 - bANG! (Riot Mix)
07 - introlube1
08 - Metamorphosis
09 - dontlookdown
10 - Moot (Medibi Mix)
11 - Gamez
12 - introlube2
13 - Down (Velocity Mix)
Код:
Exact Audio Copy V0.99 prebeta 3 from 28. July 2007
EAC extraction logfile from 25. January 2010, 8:12
slowEarth / Edge
Used drive  : HL-DT-STDVDRAM GH22LS40   Adapter: 3  ID: 0
Read mode               : Secure
Utilize accurate stream : Yes
Defeat audio cache      : Yes
Make use of C2 pointers : No
Read offset correction                      : 667
Overread into Lead-In and Lead-Out          : No
Fill up missing offset samples with silence : Yes
Delete leading and trailing silent blocks   : No
Null samples used in CRC calculations       : Yes
Used interface                              : Native Win32 interface for Win NT & 2000
Gap handling                                : Appended to previous track
Used output format              : User Defined Encoder
Selected bitrate                : 320 kBit/s
Quality                         : High
Add ID3 tag                     : No
Command line compressor         : C:\Program Files (x86)\Exact Audio Copy\Flac\flac.exe
Additional command line options : -V -8 -T "artist=%a" -T "title=%t" -T "album=%g" -T "date=%y" -T "tracknumber=%n" -T "genre=%m" %s
TOC of the extracted CD
     Track |   Start  |  Length  | Start sector | End sector
    ---------------------------------------------------------
        1  |  0:00.00 |  2:13.38 |         0    |    10012
        2  |  2:13.38 |  3:15.49 |     10013    |    24686
        3  |  5:29.12 |  3:46.58 |     24687    |    41694
        4  |  9:15.70 |  5:18.47 |     41695    |    65591
        5  | 14:34.42 |  4:26.06 |     65592    |    85547
        6  | 19:00.48 |  3:48.37 |     85548    |   102684
        7  | 22:49.10 |  1:16.38 |    102685    |   108422
        8  | 24:05.48 |  3:29.18 |    108423    |   124115
        9  | 27:34.66 |  4:11.65 |    124116    |   143005
       10  | 31:46.56 |  5:10.25 |    143006    |   166280
       11  | 36:57.06 |  3:57.41 |    166281    |   184096
       12  | 40:54.47 |  1:52.45 |    184097    |   192541
       13  | 42:47.17 | 25:08.50 |    192542    |   305691
Track  1
     Filename C:\tmp\01 - slowEarth - intro.wav
     Pre-gap length  0:00:02.00
     Peak level 97.8 %
     Track quality 100.0 %
     Test CRC AF392F7C
     Copy CRC AF392F7C
     Track not present in AccurateRip database
     Copy OK
Track  2
     Filename C:\tmp\02 - slowEarth - Try.wav
     Peak level 97.9 %
     Track quality 100.0 %
     Test CRC 2E2982DA
     Copy CRC 2E2982DA
     Track not present in AccurateRip database
     Copy OK
Track  3
     Filename C:\tmp\03 - slowEarth - Girlz & Boyz.wav
     Peak level 98.8 %
     Track quality 99.9 %
     Test CRC B5FDE4EB
     Copy CRC B5FDE4EB
     Track not present in AccurateRip database
     Copy OK
Track  4
     Filename C:\tmp\04 - slowEarth - Cut (Chord Mix).wav
     Peak level 98.8 %
     Track quality 100.0 %
     Test CRC 40B2BD1D
     Copy CRC 40B2BD1D
     Track not present in AccurateRip database
     Copy OK
Track  5
     Filename C:\tmp\05 - slowEarth - Go (Platnium Mix).wav
     Peak level 98.8 %
     Track quality 100.0 %
     Test CRC 3E7272E1
     Copy CRC 3E7272E1
     Track not present in AccurateRip database
     Copy OK
Track  6
     Filename C:\tmp\06 - slowEarth - bANG! (Riot Mix).wav
     Peak level 98.8 %
     Track quality 100.0 %
     Test CRC 605A508C
     Copy CRC 605A508C
     Track not present in AccurateRip database
     Copy OK
Track  7
     Filename C:\tmp\07 - slowEarth - introlube 1.wav
     Peak level 58.4 %
     Track quality 100.0 %
     Test CRC 34162D08
     Copy CRC 34162D08
     Track not present in AccurateRip database
     Copy OK
Track  8
     Filename C:\tmp\08 - slowEarth - metamorphosis.wav
     Peak level 98.5 %
     Track quality 100.0 %
     Test CRC 29B2380D
     Copy CRC 29B2380D
     Track not present in AccurateRip database
     Copy OK
Track  9
     Filename C:\tmp\09 - slowEarth - don't look down.wav
     Peak level 98.8 %
     Track quality 100.0 %
     Test CRC ECC7C988
     Copy CRC ECC7C988
     Track not present in AccurateRip database
     Copy OK
Track 10
     Filename C:\tmp\10 - slowEarth - Moot (Medibi Mix).wav
     Peak level 98.8 %
     Track quality 100.0 %
     Test CRC E81D15FC
     Copy CRC E81D15FC
     Track not present in AccurateRip database
     Copy OK
Track 11
     Filename C:\tmp\11 - slowEarth - Gamez.wav
     Peak level 97.9 %
     Track quality 100.0 %
     Test CRC A079F433
     Copy CRC A079F433
     Track not present in AccurateRip database
     Copy OK
Track 12
     Filename C:\tmp\12 - slowEarth - introlube 2.wav
     Peak level 62.4 %
     Track quality 100.0 %
     Test CRC 7E968759
     Copy CRC 7E968759
     Track not present in AccurateRip database
     Copy OK
Track 13
     Filename C:\tmp\13 - slowEarth - Down (Velocity Mix).wav
     Peak level 100.0 %
     Track quality 100.0 %
     Test CRC 0A534D64
     Copy CRC 0A534D64
     Track not present in AccurateRip database
     Copy OK
None of the tracks are present in the AccurateRip database
No errors occurred
End of status report
Код:
REM GENRE Electronic
REM DATE 2003
REM DISCID B50FEB0D
REM COMMENT "ExactAudioCopy v0.99pb3"
PERFORMER "slowEarth"
TITLE "Edge"
FILE "01 - slowEarth - intro.wav" WAVE
  TRACK 01 AUDIO
    TITLE "intro"
    PERFORMER "slowEarth"
    INDEX 01 00:00:00
FILE "02 - slowEarth - Try.wav" WAVE
  TRACK 02 AUDIO
    TITLE "Try"
    PERFORMER "slowEarth"
    INDEX 01 00:00:00
FILE "03 - slowEarth - Girlz & Boyz.wav" WAVE
  TRACK 03 AUDIO
    TITLE "Girlz & Boyz"
    PERFORMER "slowEarth"
    INDEX 01 00:00:00
FILE "04 - slowEarth - Cut (Chord Mix).wav" WAVE
  TRACK 04 AUDIO
    TITLE "Cut (Chord Mix)"
    PERFORMER "slowEarth"
    INDEX 01 00:00:00
FILE "05 - slowEarth - Go (Platnium Mix).wav" WAVE
  TRACK 05 AUDIO
    TITLE "Go (Platnium Mix)"
    PERFORMER "slowEarth"
    INDEX 01 00:00:00
FILE "06 - slowEarth - bANG! (Riot Mix).wav" WAVE
  TRACK 06 AUDIO
    TITLE "bANG! (Riot Mix)"
    PERFORMER "slowEarth"
    INDEX 01 00:00:00
FILE "07 - slowEarth - introlube 1.wav" WAVE
  TRACK 07 AUDIO
    TITLE "introlube 1"
    PERFORMER "slowEarth"
    INDEX 01 00:00:00
FILE "08 - slowEarth - metamorphosis.wav" WAVE
  TRACK 08 AUDIO
    TITLE "metamorphosis"
    PERFORMER "slowEarth"
    INDEX 01 00:00:00
FILE "09 - slowEarth - don't look down.wav" WAVE
  TRACK 09 AUDIO
    TITLE "don't look down"
    PERFORMER "slowEarth"
    INDEX 01 00:00:00
FILE "10 - slowEarth - Moot (Medibi Mix).wav" WAVE
  TRACK 10 AUDIO
    TITLE "Moot (Medibi Mix)"
    PERFORMER "slowEarth"
    INDEX 01 00:00:00
FILE "11 - slowEarth - Gamez.wav" WAVE
  TRACK 11 AUDIO
    TITLE "Gamez"
    PERFORMER "slowEarth"
    INDEX 01 00:00:00
FILE "12 - slowEarth - introlube 2.wav" WAVE
  TRACK 12 AUDIO
    TITLE "introlube 2"
    PERFORMER "slowEarth"
    INDEX 01 00:00:00
FILE "13 - slowEarth - Down (Velocity Mix).wav" WAVE
  TRACK 13 AUDIO
    TITLE "Down (Velocity Mix)"
    PERFORMER "slowEarth"
    INDEX 01 00:00:00
#777Год выпуска диска: 2006
Производитель диска: USA
Аудио кодек: FLAC
Тип рипа: tracks+.cue
Битрейт аудио: lossless
Продолжительность: 60:24
Трэклист:
01. The Fix
02. I Will
03. Tried and True
04. Lullaby
05. ID
06. Seed
07. Only One
08. Falling
09. Come Down
10. Everything
11. Obsession
12. Entropy
Код:
Exact Audio Copy V0.99 prebeta 3 from 28. July 2007
EAC extraction logfile from 23. January 2010, 15:50
Slowearth / Beautiful Machines
Used drive  : HL-DT-STDVDRAM GH22LS40   Adapter: 3  ID: 0
Read mode               : Secure
Utilize accurate stream : Yes
Defeat audio cache      : Yes
Make use of C2 pointers : No
Read offset correction                      : 667
Overread into Lead-In and Lead-Out          : No
Fill up missing offset samples with silence : Yes
Delete leading and trailing silent blocks   : No
Null samples used in CRC calculations       : Yes
Used interface                              : Native Win32 interface for Win NT & 2000
Gap handling                                : Appended to previous track
Used output format              : User Defined Encoder
Selected bitrate                : 320 kBit/s
Quality                         : High
Add ID3 tag                     : No
Command line compressor         : C:\Program Files (x86)\Exact Audio Copy\Flac\flac.exe
Additional command line options : -V -8 -T "artist=%a" -T "title=%t" -T "album=%g" -T "date=%y" -T "tracknumber=%n" -T "genre=%m" %s
TOC of the extracted CD
     Track |   Start  |  Length  | Start sector | End sector
    ---------------------------------------------------------
        1  |  0:00.00 |  6:33.44 |         0    |    29518
        2  |  6:33.44 |  3:33.63 |     29519    |    45556
        3  | 10:07.32 |  3:50.15 |     45557    |    62821
        4  | 13:57.47 |  5:41.73 |     62822    |    88469
        5  | 19:39.45 |  5:53.53 |     88470    |   114997
        6  | 25:33.23 |  5:04.28 |    114998    |   137825
        7  | 30:37.51 |  4:07.12 |    137826    |   156362
        8  | 34:44.63 |  2:47.63 |    156363    |   168950
        9  | 37:32.51 |  4:02.72 |    168951    |   187172
       10  | 41:35.48 |  4:29.00 |    187173    |   207347
       11  | 46:04.48 |  5:54.38 |    207348    |   233935
       12  | 51:59.11 |  8:24.67 |    233936    |   271802
Track  1
     Filename C:\tmp\01 - Slowearth - The Fix.wav
     Pre-gap length  0:00:02.00
     Peak level 99.9 %
     Track quality 100.0 %
     Test CRC 9025BF14
     Copy CRC 9025BF14
     Track not present in AccurateRip database
     Copy OK
Track  2
     Filename C:\tmp\02 - Slowearth - I Will.wav
     Peak level 99.9 %
     Track quality 99.9 %
     Test CRC 8CB8A4CA
     Copy CRC 8CB8A4CA
     Track not present in AccurateRip database
     Copy OK
Track  3
     Filename C:\tmp\03 - Slowearth - Tried and True.wav
     Peak level 97.7 %
     Track quality 100.0 %
     Test CRC 3CC9D98E
     Copy CRC 3CC9D98E
     Track not present in AccurateRip database
     Copy OK
Track  4
     Filename C:\tmp\04 - Slowearth - Lullaby.wav
     Peak level 99.5 %
     Track quality 100.0 %
     Test CRC 581384A3
     Copy CRC 581384A3
     Track not present in AccurateRip database
     Copy OK
Track  5
     Filename C:\tmp\05 - Slowearth - ID.wav
     Peak level 99.9 %
     Track quality 100.0 %
     Test CRC 79E4404F
     Copy CRC 79E4404F
     Track not present in AccurateRip database
     Copy OK
Track  6
     Filename C:\tmp\06 - Slowearth - Seed.wav
     Peak level 97.2 %
     Track quality 100.0 %
     Test CRC E2539F7B
     Copy CRC E2539F7B
     Track not present in AccurateRip database
     Copy OK
Track  7
     Filename C:\tmp\07 - Slowearth - Only One.wav
     Peak level 100.0 %
     Track quality 100.0 %
     Test CRC 7C37905B
     Copy CRC 7C37905B
     Track not present in AccurateRip database
     Copy OK
Track  8
     Filename C:\tmp\08 - Slowearth - Falling.wav
     Peak level 97.7 %
     Track quality 100.0 %
     Test CRC D03A7FAA
     Copy CRC D03A7FAA
     Track not present in AccurateRip database
     Copy OK
Track  9
     Filename C:\tmp\09 - Slowearth - Come Down.wav
     Peak level 99.9 %
     Track quality 100.0 %
     Test CRC AF3BFCC7
     Copy CRC AF3BFCC7
     Track not present in AccurateRip database
     Copy OK
Track 10
     Filename C:\tmp\10 - Slowearth - Everything.wav
     Peak level 99.6 %
     Track quality 100.0 %
     Test CRC C12D735E
     Copy CRC C12D735E
     Track not present in AccurateRip database
     Copy OK
Track 11
     Filename C:\tmp\11 - Slowearth - Obsession.wav
     Peak level 99.9 %
     Track quality 100.0 %
     Test CRC FEA72620
     Copy CRC FEA72620
     Track not present in AccurateRip database
     Copy OK
Track 12
     Filename C:\tmp\12 - Slowearth - Entropy.wav
     Peak level 97.7 %
     Track quality 100.0 %
     Test CRC 79CF53C0
     Copy CRC 79CF53C0
     Track not present in AccurateRip database
     Copy OK
None of the tracks are present in the AccurateRip database
No errors occurred
End of status report
Код:
REM GENRE Electronic
REM DATE 2006
REM DISCID B30E280C
REM COMMENT "ExactAudioCopy v0.99pb3"
CATALOG 0634479277290
PERFORMER "Slowearth"
TITLE "Beautiful Machines"
FILE "01 - Slowearth - The Fix.wav" WAVE
  TRACK 01 AUDIO
    TITLE "The Fix"
    PERFORMER "Slowearth"
    ISRC USFJM0600001
    INDEX 01 00:00:00
FILE "02 - Slowearth - I Will.wav" WAVE
  TRACK 02 AUDIO
    TITLE "I Will"
    PERFORMER "Slowearth"
    ISRC USFJM0600002
    INDEX 01 00:00:00
FILE "03 - Slowearth - Tried and True.wav" WAVE
  TRACK 03 AUDIO
    TITLE "Tried and True"
    PERFORMER "Slowearth"
    ISRC USFJM0600003
    INDEX 01 00:00:00
FILE "04 - Slowearth - Lullaby.wav" WAVE
  TRACK 04 AUDIO
    TITLE "Lullaby"
    PERFORMER "Slowearth"
    ISRC USFJM0600004
    INDEX 01 00:00:00
FILE "05 - Slowearth - ID.wav" WAVE
  TRACK 05 AUDIO
    TITLE "ID"
    PERFORMER "Slowearth"
    ISRC USFJM0600005
    INDEX 01 00:00:00
FILE "06 - Slowearth - Seed.wav" WAVE
  TRACK 06 AUDIO
    TITLE "Seed"
    PERFORMER "Slowearth"
    ISRC USFJM0600006
    INDEX 01 00:00:00
FILE "07 - Slowearth - Only One.wav" WAVE
  TRACK 07 AUDIO
    TITLE "Only One"
    PERFORMER "Slowearth"
    ISRC USFJM0600007
    INDEX 01 00:00:00
FILE "08 - Slowearth - Falling.wav" WAVE
  TRACK 08 AUDIO
    TITLE "Falling"
    PERFORMER "Slowearth"
    ISRC USFJM0600008
    INDEX 01 00:00:00
FILE "09 - Slowearth - Come Down.wav" WAVE
  TRACK 09 AUDIO
    TITLE "Come Down"
    PERFORMER "Slowearth"
    ISRC USFJM0600009
    INDEX 01 00:00:00
FILE "10 - Slowearth - Everything.wav" WAVE
  TRACK 10 AUDIO
    TITLE "Everything"
    PERFORMER "Slowearth"
    ISRC USFJM0600010
    INDEX 01 00:00:00
FILE "11 - Slowearth - Obsession.wav" WAVE
  TRACK 11 AUDIO
    TITLE "Obsession"
    PERFORMER "Slowearth"
    ISRC USFJM0600011
    INDEX 01 00:00:00
FILE "12 - Slowearth - Entropy.wav" WAVE
  TRACK 12 AUDIO
    TITLE "Entropy"
    PERFORMER "Slowearth"
    ISRC USFJM0600012
    INDEX 01 00:00:00

Правила, инструкции, FAQ!!!
Торрент  Добавлен [26 июн 2020, 17:40] Скачать торрент Магнет ссылка
Скачать торрент
[ Размер 17.49 КБ / Просмотров 10 ]

Статус
Проверен 
 
Размер  1.25 ГБ
Приватный: Нет (DHT включён)
.torrent скачан  0
 


     Отправить личное сообщение
   
Страница 1 из 1
Показать сообщения за:  Поле сортировки  
Начать новую тему Ответить на тему


Сейчас этот форум просматривают: нет зарегистрированных пользователей и гости: 0


Вы не можете начинать темы
Вы не можете отвечать на сообщения
Вы не можете редактировать свои сообщения
Вы не можете удалять свои сообщения
Вы не можете добавлять вложения

Перейти:  
cron