Начать новую тему Ответить на тему
Статистика раздачи
Размер: 275.9 МБ | Добавлен: 01 янв 2020, 22:58 | Скачали: 0
Сидеров: 0  [0 байт/сек]    Личеров: 0  [0 байт/сек]
Пред. тема | След. тема 

Автор
Сообщение

СообщениеДобавлено: 01 янв 2020, 22:58 

Ответить с цитатой 

Fishbach / A Ta Merci
Жанр: Synth-pop, Indie Pop
Носитель: CD
Страна-производитель диска (релиза): Франция
Год издания: 2017
Издатель (лейбл): Entreprise / Sony Music / A+LSO
Номер по каталогу: 8985397722
Страна исполнителя (группы): Франция
Аудиокодек: FLAC (*.flac)
Тип рипа: tracks+.cue
Битрейт аудио: lossless
Продолжительность: 00:42:07
Источник (релизер): JunePTH
Наличие сканов в содержимом раздачи: нет
Треклист:
01. Ma voie lactée (03:12)
02. Y crois-tu (03:59)
03. Eternité (03:00)
04. Un beau langage (03:44)
05. Un autre que moi (03:04)
06. Feu (03:35)
07. On me dit tu (03:40)
08. Invisible désintégration de l'univers (03:49)
09. Le château (03:47)
10. Mortel (03:56)
11. Le meilleur de la fête (03:33)
12. À ta merci (02:47)
Код:
Exact Audio Copy V1.1 from 23. June 2015
EAC extraction logfile from 1. March 2017, 8:59
Fishbach / A Ta Merci
Used drive  : ASUS    BC-12D2HT   Adapter: 1  ID: 0
Read mode               : Secure
Utilize accurate stream : Yes
Defeat audio cache      : Yes
Make use of C2 pointers : No
Read offset correction                      : 6
Overread into Lead-In and Lead-Out          : No
Fill up missing offset samples with silence : Yes
Delete leading and trailing silent blocks   : No
Null samples used in CRC calculations       : Yes
Used interface                              : Native Win32 interface for Win NT & 2000
Gap handling                                : Appended to previous track
Used output format              : User Defined Encoder
Selected bitrate                : 1024 kBit/s
Quality                         : High
Add ID3 tag                     : No
Command line compressor         : F:\Programmes\EAC\Exact Audio Copy\Flac\flac.exe
Additional command line options : -8 -e -V -T "ARTIST=%artist%" -T "TITLE=%title%" -T "ALBUM=%albumtitle%" -T "DATE=%year%" -T "TRACKNUMBER=%tracknr%" -T "GENRE=%genre%" -T "PERFORMER=%albuminterpret%" -T "COMPOSER=%composer%" %haslyrics%--tag-from-file=LYRICS="%lyricsfile%"%haslyrics% -T "ALBUMARTIST=%albumartist%" -T "DISCNUMBER=%cdnumber%" -T "TOTALDISCS=%totalcds%" -T "TOTALTRACKS=%numtracks%" -T "COMMENT=%comment%" %source% -o %dest%
TOC of the extracted CD
     Track |   Start  |  Length  | Start sector | End sector
    ---------------------------------------------------------
        1  |  0:00.00 |  3:13.14 |         0    |    14488
        2  |  3:13.14 |  3:59.07 |     14489    |    32420
        3  |  7:12.21 |  3:00.42 |     32421    |    45962
        4  | 10:12.63 |  3:44.51 |     45963    |    62813
        5  | 13:57.39 |  3:04.11 |     62814    |    76624
        6  | 17:01.50 |  3:35.50 |     76625    |    92799
        7  | 20:37.25 |  3:40.07 |     92800    |   109306
        8  | 24:17.32 |  3:49.66 |    109307    |   126547
        9  | 28:07.23 |  3:47.72 |    126548    |   143644
       10  | 31:55.20 |  3:56.41 |    143645    |   161385
       11  | 35:51.61 |  3:33.15 |    161386    |   177375
       12  | 39:25.01 |  2:47.34 |    177376    |   189934
Track  1
     Filename F:\Musique\CDRips Julie\Fishbach - A Ta Merci (2017) [FLAC]\01 - Ma Voie Lactée.wav
     Pre-gap length  0:00:02.00
     Peak level 99.8 %
     Extraction speed 1.3 X
     Track quality 99.9 %
     Test CRC 5568B14A
     Copy CRC 5568B14A
     Track not present in AccurateRip database
     Copy OK
Track  2
     Filename F:\Musique\CDRips Julie\Fishbach - A Ta Merci (2017) [FLAC]\02 - Y Crois-tu.wav
     Peak level 99.8 %
     Extraction speed 1.1 X
     Track quality 100.0 %
     Test CRC 32029D06
     Copy CRC 32029D06
     Track not present in AccurateRip database
     Copy OK
Track  3
     Filename F:\Musique\CDRips Julie\Fishbach - A Ta Merci (2017) [FLAC]\03 - Eternité.wav
     Peak level 99.8 %
     Extraction speed 1.0 X
     Track quality 99.9 %
     Test CRC 187F7F94
     Copy CRC 187F7F94
     Track not present in AccurateRip database
     Copy OK
Track  4
     Filename F:\Musique\CDRips Julie\Fishbach - A Ta Merci (2017) [FLAC]\04 - Un Beau Langage.wav
     Peak level 99.8 %
     Extraction speed 1.3 X
     Track quality 100.0 %
     Test CRC D39BF08F
     Copy CRC D39BF08F
     Track not present in AccurateRip database
     Copy OK
Track  5
     Filename F:\Musique\CDRips Julie\Fishbach - A Ta Merci (2017) [FLAC]\05 - Un Autre Que Moi.wav
     Peak level 99.8 %
     Extraction speed 1.3 X
     Track quality 100.0 %
     Test CRC C16013E8
     Copy CRC C16013E8
     Track not present in AccurateRip database
     Copy OK
Track  6
     Filename F:\Musique\CDRips Julie\Fishbach - A Ta Merci (2017) [FLAC]\06 - Feu.wav
     Peak level 99.8 %
     Extraction speed 1.4 X
     Track quality 100.0 %
     Test CRC 4A9A44D4
     Copy CRC 4A9A44D4
     Track not present in AccurateRip database
     Copy OK
Track  7
     Filename F:\Musique\CDRips Julie\Fishbach - A Ta Merci (2017) [FLAC]\07 - On Me Dit Tu.wav
     Peak level 99.8 %
     Extraction speed 1.3 X
     Track quality 99.9 %
     Test CRC 21135E64
     Copy CRC 21135E64
     Track not present in AccurateRip database
     Copy OK
Track  8
     Filename F:\Musique\CDRips Julie\Fishbach - A Ta Merci (2017) [FLAC]\08 - Invisible Désintégration De L'Univers.wav
     Peak level 100.0 %
     Extraction speed 1.6 X
     Track quality 100.0 %
     Test CRC DBA626B9
     Copy CRC DBA626B9
     Track not present in AccurateRip database
     Copy OK
Track  9
     Filename F:\Musique\CDRips Julie\Fishbach - A Ta Merci (2017) [FLAC]\09 - Le Château.wav
     Peak level 99.8 %
     Extraction speed 1.6 X
     Track quality 100.0 %
     Test CRC BBFB7D49
     Copy CRC BBFB7D49
     Track not present in AccurateRip database
     Copy OK
Track 10
     Filename F:\Musique\CDRips Julie\Fishbach - A Ta Merci (2017) [FLAC]\10 - Mortel.wav
     Peak level 99.8 %
     Extraction speed 1.7 X
     Track quality 100.0 %
     Test CRC E382673E
     Copy CRC E382673E
     Track not present in AccurateRip database
     Copy OK
Track 11
     Filename F:\Musique\CDRips Julie\Fishbach - A Ta Merci (2017) [FLAC]\11 - Le Meilleur De La Fête.wav
     Peak level 99.8 %
     Extraction speed 1.7 X
     Track quality 100.0 %
     Test CRC 9500DC5A
     Copy CRC 9500DC5A
     Track not present in AccurateRip database
     Copy OK
Track 12
     Filename F:\Musique\CDRips Julie\Fishbach - A Ta Merci (2017) [FLAC]\12 - A Ta Merci.wav
     Peak level 99.5 %
     Extraction speed 1.7 X
     Track quality 100.0 %
     Test CRC AED27B49
     Copy CRC AED27B49
     Track not present in AccurateRip database
     Copy OK
None of the tracks are present in the AccurateRip database
No errors occurred
End of status report
---- CUETools DB Plugin V2.1.6
[CTDB TOCID: UNH4GvlQRXObp8MoaBQkWZPFt54-] found
Submit result: UNH4GvlQRXObp8MoaBQkWZPFt54- has been confirmed
Track | CTDB Status
  1   | (7/7) Accurately ripped
  2   | (7/7) Accurately ripped
  3   | (7/7) Accurately ripped
  4   | (7/7) Accurately ripped
  5   | (7/7) Accurately ripped
  6   | (7/7) Accurately ripped
  7   | (7/7) Accurately ripped
  8   | (7/7) Accurately ripped
  9   | (7/7) Accurately ripped
 10   | (7/7) Accurately ripped
 11   | (7/7) Accurately ripped
 12   | (7/7) Accurately ripped
==== Log checksum 26E70745AA212DB62BE554C7C202A8F69C581CE00048A420CB0880147A8ECD48 ====
Код:
REM GENRE Chanson
REM DATE 2017
REM DISCID AA09E40C
REM COMMENT "ExactAudioCopy v1.1"
CATALOG 0889853977222
PERFORMER "Fishbach"
TITLE "A Ta Merci"
FILE "01 - Ma Voie Lactée.wav" WAVE
  TRACK 01 AUDIO
    TITLE "Ma Voie Lactée"
    PERFORMER "Fishbach"
    ISRC FRPI61600350
    INDEX 01 00:00:00
FILE "02 - Y Crois-tu.wav" WAVE
  TRACK 02 AUDIO
    TITLE "Y Crois-tu"
    PERFORMER "Fishbach"
    ISRC FRPI61600390
    INDEX 01 00:00:00
FILE "03 - Eternité.wav" WAVE
  TRACK 03 AUDIO
    TITLE "Eternité"
    PERFORMER "Fishbach"
    ISRC FRPI61600330
    INDEX 01 00:00:00
FILE "04 - Un Beau Langage.wav" WAVE
  TRACK 04 AUDIO
    TITLE "Un Beau Langage"
    PERFORMER "Fishbach"
    ISRC FRPI61600340
    INDEX 01 00:00:00
FILE "05 - Un Autre Que Moi.wav" WAVE
  TRACK 05 AUDIO
    TITLE "Un Autre Que Moi"
    PERFORMER "Fishbach"
    ISRC FRPI61600400
    INDEX 01 00:00:00
FILE "06 - Feu.wav" WAVE
  TRACK 06 AUDIO
    TITLE "Feu"
    PERFORMER "Fishbach"
    ISRC FRPI61600400
    INDEX 01 00:00:00
FILE "07 - On Me Dit Tu.wav" WAVE
  TRACK 07 AUDIO
    TITLE "On Me Dit Tu"
    PERFORMER "Fishbach"
    ISRC FRPI61600360
    INDEX 01 00:00:00
FILE "08 - Invisible Désintégration De L'Univers.wav" WAVE
  TRACK 08 AUDIO
    TITLE "Invisible Désintégration De L'Univers"
    PERFORMER "Fishbach"
    ISRC FRPI61600380
    INDEX 01 00:00:00
FILE "09 - Le Château.wav" WAVE
  TRACK 09 AUDIO
    TITLE "Le Château"
    PERFORMER "Fishbach"
    ISRC FRPI61600410
    INDEX 01 00:00:00
FILE "10 - Mortel.wav" WAVE
  TRACK 10 AUDIO
    TITLE "Mortel"
    PERFORMER "Fishbach"
    ISRC FRPI61600430
    INDEX 01 00:00:00
FILE "11 - Le Meilleur De La Fête.wav" WAVE
  TRACK 11 AUDIO
    TITLE "Le Meilleur De La Fête"
    PERFORMER "Fishbach"
    ISRC FRPI61600420
    INDEX 01 00:00:00
FILE "12 - A Ta Merci.wav" WAVE
  TRACK 12 AUDIO
    TITLE "A Ta Merci"
    PERFORMER "Fishbach"
    ISRC FRPI61600440
    INDEX 01 00:00:00
Правила, инструкции, FAQ!!!
Торрент  Добавлен [01 янв 2020, 22:58] Скачать торрент Магнет ссылка
Скачать торрент
[ Размер 4.01 КБ / Просмотров 10 ]

Статус
Проверен 
 
Размер  275.9 МБ
Приватный: Нет (DHT включён)
.torrent скачан  0
 


     Отправить личное сообщение
   
Страница 1 из 1
Показать сообщения за:  Поле сортировки  
Начать новую тему Ответить на тему


Сейчас этот форум просматривают: нет зарегистрированных пользователей и гости: 0


Вы не можете начинать темы
Вы не можете отвечать на сообщения
Вы не можете редактировать свои сообщения
Вы не можете удалять свои сообщения
Вы не можете добавлять вложения

Перейти:  
cron