Начать новую тему Ответить на тему
Статистика раздачи
Размер: 446.75 МБ | Добавлен: 26 июн 2020, 21:08 | Скачали: 0
Сидеров: 0  [0 байт/сек]    Личеров: 0  [0 байт/сек]
Пред. тема | След. тема 

Автор
Сообщение

СообщениеДобавлено: 26 июн 2020, 21:08 

Ответить с цитатой 

Psyche - Insomnia Theatre Unveiling The Secret
Жанр: Synth-pop, Dark Wave
Год выпуска диска: 1993
Производитель диска: Germany
Аудио кодек: FLAC
Тип рипа: image+.cue
Битрейт аудио: lossless
Продолжительность: 74min 50sek
Трэклист:
1. Eyeball Doze
2. Maggots
3. Wrench
4. Brain Collapse
5. Eating Violins
6. On The Edge
7. Why Should I?
8. Thundershowers
9. Lord Unleashed
10. Caught In The Act
11. Prisoner To Desire
12. The Saint Became A Lush
13. Black Panther
14. Taking Chances
15. Unveiling The Secret
16. The Crawler
Доп. информация: Диск из моей личной коллекции
Exact Audio Copy V0.99 prebeta 5 from 4. May 2009
Отчёт EAC об извлечении, выполненном 7. сентября 2009, 23:55
Psyche / Insomnia Theatre - Unveiling The Secret
Дисковод: TSSTcorpCD/DVDW SH-S182M Adapter: 0 ID: 0
Режим чтения : Достоверность
Использование точного потока : Да
Отключение кэша аудио : Да
Использование указателей C2 : Нет
Коррекция смещения при чтении : 6
Способность читать области Lead-in и Lead-out : Нет
Заполнение пропущенных сэмплов тишиной : Да
Удаление блоков с тишиной в начале и конце : Нет
При вычислениях CRC использовались нулевые сэмплы : Да
Интерфейс : Встроенный Win32-интерфейс для Win NT/2000
Выходной формат : Пользовательский кодировщик
Выбранный битрейт : 768 kBit/s
Качество : Высокий
Добавление ID3-тэга : Нет
Утилита сжатия : C:\Program Files\Exact Audio Copy\FLAC\FLAC.EXE
Дополнительные параметры : -6 -V -T "ARTIST=%a" -T "TITLE=%t" -T "ALBUM=%g" -T "DATE=%y" -T "TRACKNUMBER=%n" -T "GENRE=%m" -T "COMMENT=%e" %s -o %d
TOC извлечённого CD
Трек | Старт | Длительность | Начальный сектор | Конечный сектор
---------------------------------------------------------------------
1 | 0:00.00 | 5:08.00 | 0 | 23099
2 | 5:08.00 | 4:26.70 | 23100 | 43119
3 | 9:34.70 | 3:49.05 | 43120 | 60299
4 | 13:24.00 | 4:09.55 | 60300 | 79029
5 | 17:33.55 | 2:45.47 | 79030 | 91451
6 | 20:19.27 | 5:09.73 | 91452 | 114699
7 | 25:29.25 | 5:06.25 | 114700 | 137674
8 | 30:35.50 | 5:13.47 | 137675 | 161196
9 | 35:49.22 | 3:22.53 | 161197 | 176399
10 | 39:12.00 | 5:42.00 | 176400 | 202049
11 | 44:54.00 | 5:37.35 | 202050 | 227359
12 | 50:31.35 | 6:25.15 | 227360 | 256249
13 | 56:56.50 | 3:52.50 | 256250 | 273699
14 | 60:49.25 | 4:38.30 | 273700 | 294579
15 | 65:27.55 | 7:03.17 | 294580 | 326321
16 | 72:30.72 | 2:17.58 | 326322 | 336654
Характеристики диапазона извлечения и сообщения об ошибках
Выбранный диапазон
Имя файла I:\Моя музыка\v set\1993 Psyche Insomnia Theatre - Unveiling The Secret\Psyche - Insomnia Theatre - Unveiling The Secret.wav
Пиковый уровень 100.0 %
Качество диапазона 100.0 %
CRC теста 4F2FC9B9
CRC копии 4F2FC9B9
Копирование... OK
Ошибок не произошло
AccurateRip: сводка
Трек 1 нет в базе данных
Трек 2 нет в базе данных
Трек 3 нет в базе данных
Трек 4 нет в базе данных
Трек 5 нет в базе данных
Трек 6 нет в базе данных
Трек 7 нет в базе данных
Трек 8 нет в базе данных
Трек 9 нет в базе данных
Трек 10 нет в базе данных
Трек 11 нет в базе данных
Трек 12 нет в базе данных
Трек 13 нет в базе данных
Трек 14 нет в базе данных
Трек 15 нет в базе данных
Трек 16 нет в базе данных
Ни одного трека нет в базе AccurateRip
Конец отчёта
Правила, инструкции, FAQ!!!
Торрент  Добавлен [26 июн 2020, 21:08] Скачать торрент Магнет ссылка
Скачать торрент
[ Размер 18.31 КБ / Просмотров 13 ]

Статус
Проверен 
 
Размер  446.75 МБ
Приватный: Нет (DHT включён)
.torrent скачан  0
 


     Отправить личное сообщение
   
Страница 1 из 1
Показать сообщения за:  Поле сортировки  
Начать новую тему Ответить на тему


Сейчас этот форум просматривают: нет зарегистрированных пользователей и гости: 0


Вы не можете начинать темы
Вы не можете отвечать на сообщения
Вы не можете редактировать свои сообщения
Вы не можете удалять свои сообщения
Вы не можете добавлять вложения

Перейти:  
cron