Начать новую тему Ответить на тему
Статистика раздачи
Размер: 372.85 МБ | Добавлен: 26 июн 2020, 17:00 | Скачали: 0
Сидеров: 0  [0 байт/сек]    Личеров: 0  [0 байт/сек]
Пред. тема | След. тема 

Автор
Сообщение

СообщениеДобавлено: 26 июн 2020, 17:00 

Ответить с цитатой 

Nekrodamus - Malfeitor
Жанр: synth gothic
Год выпуска диска: 2003
Производитель диска: (Twilight Records, Argentina)
Аудио кодек: FLAC
Тип рипа: image+.cue
Битрейт аудио: lossless
Продолжительность: 1:02:58.13
Трэклист:
01. Don't You Love [4:44]
02. On The Night (She's Waiting) [5:19]
03. Absence [5:18]
04. Nosferatu [5:27]
05. V-Sadness [5:02]
06. Malfeitor (Show Me Your Evil) [6:21]
07. Nekrodamus [4:58]
08. Vampire Love [5:57]
09. Real Hard [4:55]
10. I'll Never Found [4:54]
11. Everlasting [3:47]
12. Nosferatu (Lamia mix) [6:17]
Код:
Exact Audio Copy V0.99 prebeta 4 from 23. January 2008
Отчёт EAC об извлечении, выполненном 27. февраля 2009, 12:39
Nekrodamus / Malfeitor
Дисковод: Optiarc DVD RW AD-7170A   Adapter: 0  ID: 0
Режим чтения                 : Достоверность
Использование точного потока : Да
Отключение кэша аудио        : Да
Использование указателей C2  : Нет
Коррекция смещения при чтении                     : 48
Способность читать области Lead-in и Lead-out     : Нет
Заполнение пропущенных сэмплов тишиной            : Да
Удаление блоков с тишиной в начале и конце        : Нет
При вычислениях CRC использовались нулевые сэмплы : Да
Интерфейс                                         : Встроенный Win32-интерфейс для Win NT/2000
Выходной формат          : Пользовательский кодировщик
Выбранный битрейт        : 1024 kBit/s
Качество                 : Высокий
Добавление ID3-тэга      : Нет
Утилита сжатия           : C:\Program Files\Exact Audio Copy\FLAC\FLAC.EXE
Дополнительные параметры : -6 -V -T "ARTIST=%a" -T "TITLE=%t" -T "ALBUM=%g" -T "DATE=%y" -T "TRACKNUMBER=%n" -T "GENRE=%m" -T "COMMENT=%e" %s -o %d
TOC извлечённого CD
     Трек |   Старт  | Длительность | Начальный сектор | Конечный сектор
    ---------------------------------------------------------------------
       1  |  0:00.00 |    4:44.29   |           0      |      21328
       2  |  4:44.29 |    5:18.53   |       21329      |      45231
       3  | 10:03.07 |    5:17.44   |       45232      |      69050
       4  | 15:20.51 |    5:26.71   |       69051      |      93571
       5  | 20:47.47 |    5:02.24   |       93572      |     116245
       6  | 25:49.71 |    6:21.19   |      116246      |     144839
       7  | 32:11.15 |    4:57.64   |      144840      |     167178
       8  | 37:09.04 |    5:56.72   |      167179      |     193950
       9  | 43:06.01 |    4:55.04   |      193951      |     216079
      10  | 48:01.05 |    4:53.63   |      216080      |     238117
      11  | 52:54.68 |    3:46.45   |      238118      |     255112
      12  | 56:41.38 |    6:16.50   |      255113      |     283362
Характеристики диапазона извлечения и сообщения об ошибках
Выбранный диапазон
     Имя файла D:\Мои документы\Nekrodamus - Malfeitor.wav
     Пиковый уровень 100.0 %
     Качество диапазона 99.9 %
     CRC теста 41E858DF
     CRC копии 41E858DF
     Копирование... OK
Ошибок не произошло
Конец отчёта
Хочешь скачать, но не можешь из-за отсутствия сидов - пиши в личку!
Правила, инструкции, FAQ!!!
Торрент  Добавлен [26 июн 2020, 17:00] Скачать торрент Магнет ссылка
Скачать торрент
[ Размер 15.49 КБ / Просмотров 1 ]

Статус
Проверен 
 
Размер  372.85 МБ
Приватный: Нет (DHT включён)
.torrent скачан  0
 


     Отправить личное сообщение
   
Страница 1 из 1
Показать сообщения за:  Поле сортировки  
Начать новую тему Ответить на тему


Сейчас этот форум просматривают: нет зарегистрированных пользователей и гости: 0


Вы не можете начинать темы
Вы не можете отвечать на сообщения
Вы не можете редактировать свои сообщения
Вы не можете удалять свои сообщения
Вы не можете добавлять вложения

Перейти:  
cron