Начать новую тему Ответить на тему
Статистика раздачи
Размер: 463.29 МБ | Добавлен: 26 июн 2020, 19:41 | Скачали: 0
Сидеров: 0  [0 байт/сек]    Личеров: 0  [0 байт/сек]
Пред. тема | След. тема 

Автор
Сообщение

СообщениеДобавлено: 26 июн 2020, 19:41 

Ответить с цитатой 

Lost Area / Destroying Something Beautiful
#777Жанр: synth gothic
Страна-производитель диска: Germany
Год издания: 2012
Издатель (лейбл): Thexoomo
Аудиокодек: FLAC (*.flac)
Тип рипа: image+.cue
Битрейт аудио: lossless
Продолжительность: 50:53.17
Источник (релизер): Физический носитель
Наличие сканов в содержимом раздачи: да
Треклист:
01. Nobody [3:53]
02. Sun Is Still Shining [3:26]
03. Black Storm [4:13]
04. You Are Alive [3:41]
05. Leave Me Alone [4:04]
06. I'm Here [3:48]
07. Yesterdays [3:22]
08. A Place Called Home [3:16]
09. Mask [3:27]
10. Breakdown [4:33]
11. Crashing Down [4:17]
12. The Way We Used To Be [4:38]
13. I Don't Love You [4:14]
Код:
Exact Audio Copy V1.0 beta 3 from 29. August 2011
Отчёт EAC об извлечении, выполненном 22. ноября 2012, 16:54
Lost Area / Destroying Something Beautiful
Дисковод: _NEC    DVD_RW ND-3520A   Adapter: 0  ID: 1
Режим чтения                 : Достоверность
Использование точного потока : Да
Отключение кэша аудио        : Да
Использование указателей C2  : Нет
Коррекция смещения при чтении                     : 48
Способность читать области Lead-in и Lead-out     : Нет
Заполнение пропущенных сэмплов тишиной            : Да
Удаление блоков с тишиной в начале и конце        : Нет
При вычислениях CRC использовались нулевые сэмплы : Да
Интерфейс                                         : Установленный внешний ASPI-интерфейс
Выходной формат          : Пользовательский кодировщик
Выбранный битрейт        : 1024 kBit/s
Качество                 : Высокий
Добавление ID3-тега      : Нет
Утилита сжатия           : C:\Program Files\Exact Audio Copy\Flac\flac.exe
Дополнительные параметры : -6 -V -T "Date=%year%" -T "Genre=%genre%" %source%
TOC извлечённого CD
     Трек |   Старт  | Длительность | Начальный сектор | Конечный сектор
    ---------------------------------------------------------------------
       1  |  0:00.00 |    3:53.37   |           0      |      17511
       2  |  3:53.37 |    3:26.35   |       17512      |      32996
       3  |  7:19.72 |    4:12.42   |       32997      |      51938
       4  | 11:32.39 |    3:41.15   |       51939      |      68528
       5  | 15:13.54 |    4:04.00   |       68529      |      86828
       6  | 19:17.54 |    3:48.31   |       86829      |     103959
       7  | 23:06.10 |    3:22.27   |      103960      |     119136
       8  | 26:28.37 |    3:16.32   |      119137      |     133868
       9  | 29:44.69 |    3:27.17   |      133869      |     149410
      10  | 33:12.11 |    4:32.63   |      149411      |     169873
      11  | 37:44.74 |    4:16.46   |      169874      |     189119
      12  | 42:01.45 |    4:37.64   |      189120      |     209958
      13  | 46:39.34 |    4:13.58   |      209959      |     228991
Характеристики диапазона извлечения и сообщения об ошибках
Выбранный диапазон
     Имя файла C:\Lost Area - Destroying Something Beautiful.wav
     Пиковый уровень 100.0 %
     Скорость извлечения 3.8 X
     Качество диапазона 100.0 %
     CRC теста CF7B6E36
     CRC копии CF7B6E36
     Копирование... OK
Ошибок не произошло
AccurateRip: сводка
Трек  1  отсутствует в базе данных
Трек  2  отсутствует в базе данных
Трек  3  отсутствует в базе данных
Трек  4  отсутствует в базе данных
Трек  5  отсутствует в базе данных
Трек  6  отсутствует в базе данных
Трек  7  отсутствует в базе данных
Трек  8  отсутствует в базе данных
Трек  9  отсутствует в базе данных
Трек 10  отсутствует в базе данных
Трек 11  отсутствует в базе данных
Трек 12  отсутствует в базе данных
Трек 13  отсутствует в базе данных
Ни одного трека нет в базе AccurateRip
Конец отчёта
==== Контрольная сумма отчёта 9652403A50A730AA897533CE7E9269C36A1046EE409A43DD6385D620FCAEDA6F ====
Правила, инструкции, FAQ!!!
Торрент  Добавлен [26 июн 2020, 19:41] Скачать торрент Магнет ссылка
Скачать торрент
[ Размер 19.37 КБ / Просмотров 10 ]

Статус
Проверен 
 
Размер  463.29 МБ
Приватный: Нет (DHT включён)
.torrent скачан  0
 


     Отправить личное сообщение
   
Страница 1 из 1
Показать сообщения за:  Поле сортировки  
Начать новую тему Ответить на тему


Сейчас этот форум просматривают: нет зарегистрированных пользователей и гости: 0


Вы не можете начинать темы
Вы не можете отвечать на сообщения
Вы не можете редактировать свои сообщения
Вы не можете удалять свои сообщения
Вы не можете добавлять вложения

Перейти:  
cron