Начать новую тему Ответить на тему
Статистика раздачи
Размер: 533.28 МБ | Добавлен: 26 июн 2020, 17:36 | Скачали: 0
Сидеров: 0  [0 байт/сек]    Личеров: 0  [0 байт/сек]
Пред. тема | След. тема 

Автор
Сообщение

СообщениеДобавлено: 26 июн 2020, 17:36 

Ответить с цитатой 

Black Heaven - Trugbild
Жанр: Synth\Gothic\Darkwave
Год выпуска диска: 2004
Производитель диска: Россия (Irond)
Аудио кодек: FLAC
Тип рипа: image+.cue
Битрейт аудио: lossless
Продолжительность: 75:10
Трэклист:
1 In Deinen Augen
2 Trugbild
3 Horizont
4 Ohne Zeit
5 Natur Und Kunst
6 Der Alte Mann
7 Im Regen
8 Schmerz
9 Niemand
10 In Deinen Augen (alternative version)
11 Schmerz (alternative version)
Black Heaven feat. Mantus
Bonus tracks

12 Schwarze Rosen
13 Ein Hauch Von Wirklichkeit
14 Herr Der Welt
15 Kleiner Engel Fluegellos
16 Phoenix
Состав группы:
Martin Schindler - programming & composition,
vocals & lyrics
Thalia - vocals
Сайт группы
Black Heaven, как сайд-проект известного музыканта Martin’а Schindler’а из команды Mantus, существует уже не первый год и в очередной раз порадовал нас своей новой, танцевальной работой под названием "Trugbild". Релиз включил в себя как новый материал, так и дополнительную серию бонус-треков композиций Mantus в новой отличительной обработке. Пластиночка достаточно интересная и слушается очень легко и ненавязчиво, на всем временном протяжении. Все треки выдержанны в танцевальных ритмах и романтическом настроении с чуткими перезвонами электронных коллобораций, и меланхолических настроений. Мягкие вокалы участников проекта как мужской, так и женский, создают чувственные настроения и балансируют в переходящих вариациях германского произношения. Чередование динамичных и спокойных композиций создают очень благоприятную атмосферу и выборочно влияют на состояние слушателя. Растворившись в спокойной меланхолии голоса Thalia, во время композиций "Horizont", "Ohne Zeit", происходит реальное ощущение временного затишья и увлечения красивой, пространственной мелодикой, заполняющей все вокруг. Далее, временное спокойствие сменяется подвижной динамикой трека "Natur und Kunst", что продолжает действие по кругу в танцевальном ритме electro-pop с легким привкусом synth’етики. Релиз достаточно разноплановый и содержит массу ярких композиций как для домашнего прослушивания, так и клубного прикосновения к танцполу. Уверен, что работа придется по вкусу поклонникам L’ame Immortelle, VNV Nation и Blutengel, а так же всем любителям спокойного и красивого электричества.
(c) darkside.ru
Quadral
Exact Audio Copy V0.99 prebeta 4 from 23. January 2008
Отчёт EAC об извлечении, выполненном 25. октября 2008, 8:31
Black Heaven / Trugbild
Дисковод: PLEXTOR DVDR PX-755A Adapter: 4 ID: 0
Режим чтения : Достоверность
Использование точного потока : Да
Отключение кэша аудио : Да
Использование указателей C2 : Нет
Коррекция смещения при чтении : 30
Способность читать области Lead-in и Lead-out : Нет
Заполнение пропущенных сэмплов тишиной : Да
Удаление блоков с тишиной в начале и конце : Нет
При вычислениях CRC использовались нулевые сэмплы : Да
Интерфейс : Установленный внешний ASPI-интерфейс
Выходной формат : Пользовательский кодировщик
Выбранный битрейт : 1024 kBit/s
Качество : Высокий
Добавление ID3-тэга : Нет
Утилита сжатия : D:\Программы\Exact Audio Copy\FLAC\FLAC.EXE
Дополнительные параметры : -8 -V -T "ARTIST=%a" -T "TITLE=%t" -T "ALBUM=%g" -T "DATE=%y" -T "TRACKNUMBER=%n" -T "GENRE=%m" -T "COMMENT=EAC FLAC -8" %s
TOC извлечённого CD
Трек | Старт | Длительность | Начальный сектор | Конечный сектор
---------------------------------------------------------------------
1 | 0:00.00 | 4:28.71 | 0 | 20170
2 | 4:28.71 | 3:57.07 | 20171 | 37952
3 | 8:26.03 | 4:11.22 | 37953 | 56799
4 | 12:37.25 | 3:39.61 | 56800 | 73285
5 | 16:17.11 | 4:35.50 | 73286 | 93960
6 | 20:52.61 | 5:04.21 | 93961 | 116781
7 | 25:57.07 | 3:56.66 | 116782 | 134547
8 | 29:53.73 | 4:57.62 | 134548 | 156884
9 | 34:51.60 | 5:01.58 | 156885 | 179517
10 | 39:53.43 | 5:39.03 | 179518 | 204945
11 | 45:32.46 | 6:21.24 | 204946 | 233544
12 | 51:53.70 | 4:36.30 | 233545 | 254274
13 | 56:30.25 | 4:34.44 | 254275 | 274868
14 | 61:04.69 | 4:53.31 | 274869 | 296874
15 | 65:58.25 | 4:26.43 | 296875 | 316867
16 | 70:24.68 | 4:45.22 | 316868 | 338264
Характеристики диапазона извлечения и сообщения об ошибках
Выбранный диапазон
Имя файла F:\Black Heaven - Trugbild.wav
Пиковый уровень 97.7 %
Качество диапазона 100.0 %
CRC теста E24AEA1E
CRC копии E24AEA1E
Копирование... OK
Ошибок не произошло
AccurateRip: сводка
Трек 1 точное извлечение (доверие 3) [02174DE2]
Трек 2 точное извлечение (доверие 3) [922C6754]
Трек 3 точное извлечение (доверие 2) [37A622C8]
Трек 4 точное извлечение (доверие 2) [012760DD]
Трек 5 точное извлечение (доверие 2) [C6EF6E07]
Трек 6 точное извлечение (доверие 2) [F6106D5D]
Трек 7 точное извлечение (доверие 2) [57EC2B69]
Трек 8 точное извлечение (доверие 2) [94CA0EF9]
Трек 9 точное извлечение (доверие 2) [D6222073]
Трек 10 точное извлечение (доверие 2) [731CDF22]
Трек 11 точное извлечение (доверие 2) [943470F8]
Трек 12 точное извлечение (доверие 2) [57E9F091]
Трек 13 точное извлечение (доверие 2) [548E6B93]
Трек 14 точное извлечение (доверие 2) [E8568919]
Трек 15 точное извлечение (доверие 2) [6388F4F2]
Трек 16 точное извлечение (доверие 2) [CAFE2AAF]
Все треки извлечены точно
Конец отчёта
Правила, инструкции, FAQ!!!
Торрент  Добавлен [26 июн 2020, 17:36] Скачать торрент Магнет ссылка
Скачать торрент
[ Размер 11.62 КБ / Просмотров 10 ]

Статус
Проверен 
 
Размер  533.28 МБ
Приватный: Нет (DHT включён)
.torrent скачан  0
 


     Отправить личное сообщение
   
Страница 1 из 1
Показать сообщения за:  Поле сортировки  
Начать новую тему Ответить на тему


Сейчас этот форум просматривают: нет зарегистрированных пользователей и гости: 0


Вы не можете начинать темы
Вы не можете отвечать на сообщения
Вы не можете редактировать свои сообщения
Вы не можете удалять свои сообщения
Вы не можете добавлять вложения

Перейти:  
cron