Начать новую тему Ответить на тему
Статистика раздачи
Размер: 328.46 МБ | Добавлен: 26 июн 2020, 21:00 | Скачали: 0
Сидеров: 0  [0 байт/сек]    Личеров: 0  [0 байт/сек]
Пред. тема | След. тема 

Автор
Сообщение

СообщениеДобавлено: 26 июн 2020, 21:00 

Ответить с цитатой 

Black Heaven - Obscurity
Жанр: Synth\Gothic\Darkwave
Год выпуска диска: 2002
Производитель диска: Россия (Irond)
Аудио кодек: FLAC
Тип рипа: image+.cue
Битрейт аудио: lossless
Продолжительность: 44:37
Трэклист:
1 The Smell Of Suicide
2 Regentanz
3 Flusseslauf
4 Without You
5 Necromancer
6 Seelenlos
7 Centre Of Light
8 Obscurity
9 Eclipse (Instumental)
10 Waiting For You
Состав группы:
Martin Schindler - programming & composition,
vocals & lyrics
Thalia - vocals
Сайт группы

Второй альбом этого немецкого коллектива получился очень и очень достойным. Несмотря на простоту их электронной музыки, она несет в себе своеобразный, притягивающий слушателя, оттенок. Он выражается в том, что весь диск хочется переслушивать снова и снова, не говоря уже о том, что он является прекрасным звуковым составляющим для клуба.
Говоря о вокале, мы сразу же вспоминаем группу MANTUS. И это вполне понятно, ведь BLACK HEAVEN – это второй проект MANTUS. То есть, перед нами гармоничное сочетание мужского голоса с женским. Иногда музыканты прибегают к такой вещи, как изменение собственного голоса (например, в одноименной с титульной композиции “Obscurity”). Причем, делают это успешно, что в очередной раз способствует поднятию общего качества музыки.
Лирика. Здесь все банально. О встречах, расставаниях, суициде и любви. И, опять же, на фоне приятной музыки слова не кажутся неуместными или несерьезными. Наверное, для таких мелодий должны существовать только такие темы...
И еще пару слов о звучании... Как уже говорилось выше, оно незамысловато и притягательно, одновременно. Можно говорить о том, что оперируя простыми сэмплами, музыкантам удалось почти что из каждой песни сделать хорошую, цепляющую своим ритмом, песню. А это невозможно не оценить.
Есть еще одна вещь, которая очень понравилась на этом альбоме. Как ни странно, это обложка с изображенном на ней ангелом. Очень и очень красиво. По-видимому, взаимодействие с такими образами стало традицией, поскольку на обложке каждого альбома группы мы видим ангела... Что же, это замечательно. Принимая во внимание тот факт, что изображения действительно красивы.
darkside.ru
Haelthdane
Exact Audio Copy V0.99 prebeta 4 from 23. January 2008
Отчёт EAC об извлечении, выполненном 27. октября 2008, 19:28
Black Heaven / Obscurity
Дисковод: PLEXTOR DVDR PX-755A Adapter: 4 ID: 0
Режим чтения : Достоверность
Использование точного потока : Да
Отключение кэша аудио : Да
Использование указателей C2 : Нет
Коррекция смещения при чтении : 30
Способность читать области Lead-in и Lead-out : Нет
Заполнение пропущенных сэмплов тишиной : Да
Удаление блоков с тишиной в начале и конце : Нет
При вычислениях CRC использовались нулевые сэмплы : Да
Интерфейс : Установленный внешний ASPI-интерфейс
Выходной формат : Пользовательский кодировщик
Выбранный битрейт : 1024 kBit/s
Качество : Высокий
Добавление ID3-тэга : Нет
Утилита сжатия : D:\Программы\Exact Audio Copy\FLAC\FLAC.EXE
Дополнительные параметры : -8 -V -T "ARTIST=%a" -T "TITLE=%t" -T "ALBUM=%g" -T "DATE=%y" -T "TRACKNUMBER=%n" -T "GENRE=%m" -T "COMMENT=EAC FLAC -8" %s
TOC извлечённого CD
Трек | Старт | Длительность | Начальный сектор | Конечный сектор
---------------------------------------------------------------------
1 | 0:00.00 | 3:57.04 | 0 | 17778
2 | 3:57.04 | 4:57.59 | 17779 | 40112
3 | 8:54.63 | 4:55.19 | 40113 | 62256
4 | 13:50.07 | 4:35.40 | 62257 | 82921
5 | 18:25.47 | 4:03.67 | 82922 | 101213
6 | 22:29.39 | 4:15.54 | 101214 | 120392
7 | 26:45.18 | 4:34.62 | 120393 | 141004
8 | 31:20.05 | 4:43.24 | 141005 | 162253
9 | 36:03.29 | 3:17.55 | 162254 | 177083
10 | 39:21.09 | 5:16.16 | 177084 | 200799
Характеристики диапазона извлечения и сообщения об ошибках
Выбранный диапазон
Имя файла F:\Black Heaven - Obscurity.wav
Пиковый уровень 100.0 %
Качество диапазона 100.0 %
CRC теста B1F7CEFA
CRC копии B1F7CEFA
Копирование... OK
Ошибок не произошло
AccurateRip: сводка
Трек 1 нет в базе данных
Трек 2 нет в базе данных
Трек 3 нет в базе данных
Трек 4 нет в базе данных
Трек 5 нет в базе данных
Трек 6 нет в базе данных
Трек 7 нет в базе данных
Трек 8 нет в базе данных
Трек 9 нет в базе данных
Трек 10 нет в базе данных
Ни одного трека нет в базе AccurateRip
Конец отчёта
Правила, инструкции, FAQ!!!
Торрент  Добавлен [26 июн 2020, 21:00] Скачать торрент Магнет ссылка
Скачать торрент
[ Размер 13.85 КБ / Просмотров 4 ]

Статус
Проверен 
 
Размер  328.46 МБ
Приватный: Нет (DHT включён)
.torrent скачан  0
 


     Отправить личное сообщение
   
Страница 1 из 1
Показать сообщения за:  Поле сортировки  
Начать новую тему Ответить на тему


Сейчас этот форум просматривают: нет зарегистрированных пользователей и гости: 0


Вы не можете начинать темы
Вы не можете отвечать на сообщения
Вы не можете редактировать свои сообщения
Вы не можете удалять свои сообщения
Вы не можете добавлять вложения

Перейти:  
cron