Начать новую тему Ответить на тему
Статистика раздачи
Размер: 373.82 МБ | Добавлен: 26 июн 2020, 17:40 | Скачали: 0
Сидеров: 0  [0 байт/сек]    Личеров: 0  [0 байт/сек]
Пред. тема | След. тема 

Автор
Сообщение

СообщениеДобавлено: 26 июн 2020, 17:40 

Ответить с цитатой 

Black Heaven - Kunstwerk
Жанр: Synth\Gothic\Darkwave
Год выпуска диска: 2007
Страна: Germany
Аудио кодек: FLAC
Тип рипа: image+.cue
Битрейт аудио: lossless
Продолжительность: 57:29
Трэклист:
01 - Schwarzes Loch
02 - Babylon
03 - Durch leere Strassen
04 - Kein Zurueck
05 - Dieser Weg
06 - Zweite Sonne
07 - Kunstwerk
08 - Zentrum
09 - Aus Gold
10 - Gebete an Gott
11 - Tansania
12 - Ein Daemon
13 - Aus der Stille
14 - Jemand
15 - Epilog
Состав группы:
Martin Schindler - programming & composition,
vocals & lyrics
Thalia - vocals
Сайт группы
Martin Schindler и его сестра Tina, выступающая под псевдонимом "Thalia", хорошо известны отечественному слушателю - они и Mantus, и Sepia, и Black Heaven. Во всех трех проектах семейный творческий дуэт Шиндлеров демонстрирует различные грани своего таланта. В случае Black Heaven были выбраны такие популярные жанры как Electro, Synth Goth, Dark Wave, EBM. В конце декабря увидил свет русское издание нового альбома Black Heaven "Kunstwerk", ставшего пятым по счету альбомом за шестилетнюю историю существования проекта. Как и предыдущие альбомы, он представляет собой смесь "махровой готики" и электронно-танцевальных структур, полную прекрасных аранжировок и хитовых мелодий, но на "Kunstwerk" акцент сместился в сторону мужского вокала. В какой-то мере можно сказать что этот альбом является связующим звеном между Mantus и Black Heaven. Если вам нравится Mantus, значит понравится и Black Heaven. Подлинный шедевр.
(c) cdbuy.ru
Код:
Отчёт EAC об извлечении, выполненном 19. декабря 2008, 21:41
Black Heaven / Kunstwerk
Дисковод: PLEXTOR DVDR   PX-755A   Adapter: 4  ID: 0
Режим чтения                 : Достоверность
Использование точного потока : Да
Отключение кэша аудио        : Да
Использование указателей C2  : Нет
Коррекция смещения при чтении                     : 30
Способность читать области Lead-in и Lead-out     : Нет
Заполнение пропущенных сэмплов тишиной            : Да
Удаление блоков с тишиной в начале и конце        : Нет
При вычислениях CRC использовались нулевые сэмплы : Да
Интерфейс                                         : Установленный внешний ASPI-интерфейс
Выходной формат          : Пользовательский кодировщик
Выбранный битрейт        : 1024 kBit/s
Качество                 : Высокий
Добавление ID3-тэга      : Нет
Утилита сжатия           : D:\Программы\Exact Audio Copy\FLAC\FLAC.EXE
Дополнительные параметры : -8 -V -T "ARTIST=%a" -T "TITLE=%t" -T "ALBUM=%g" -T "DATE=%y" -T "TRACKNUMBER=%n" -T "GENRE=%m" -T "COMMENT=EAC FLAC -8" %s
TOC извлечённого CD
     Трек |   Старт  | Длительность | Начальный сектор | Конечный сектор
    ---------------------------------------------------------------------
       1  |  0:00.00 |    4:02.65   |           0      |      18214
       2  |  4:02.65 |    4:15.13   |       18215      |      37352
       3  |  8:18.03 |    3:57.30   |       37353      |      55157
       4  | 12:15.33 |    3:49.69   |       55158      |      72401
       5  | 16:05.27 |    3:47.70   |       72402      |      89496
       6  | 19:53.22 |    4:29.10   |       89497      |     109681
       7  | 24:22.32 |    4:06.27   |      109682      |     128158
       8  | 28:28.59 |    3:47.45   |      128159      |     145228
       9  | 32:16.29 |    4:11.42   |      145229      |     164095
      10  | 36:27.71 |    3:29.12   |      164096      |     179782
      11  | 39:57.08 |    4:14.42   |      179783      |     198874
      12  | 44:11.50 |    3:52.14   |      198875      |     216288
      13  | 48:03.64 |    3:51.20   |      216289      |     233633
      14  | 51:55.09 |    3:58.33   |      233634      |     251516
      15  | 55:53.42 |    1:36.00   |      251517      |     258716
Характеристики диапазона извлечения и сообщения об ошибках
Выбранный диапазон
     Имя файла F:\Black Heaven - Kunstwerk.wav
     Пиковый уровень 100.0 %
     Качество диапазона 100.0 %
     CRC теста 67B8B4D2
     CRC копии 67B8B4D2
     Копирование... OK
Ошибок не произошло
AccurateRip: сводка
Трек  1  нет в базе данных
Трек  2  нет в базе данных
Трек  3  нет в базе данных
Трек  4  нет в базе данных
Трек  5  нет в базе данных
Трек  6  нет в базе данных
Трек  7  нет в базе данных
Трек  8  нет в базе данных
Трек  9  нет в базе данных
Трек 10  нет в базе данных
Трек 11  нет в базе данных
Трек 12  нет в базе данных
Трек 13  нет в базе данных
Трек 14  нет в базе данных
Трек 15  нет в базе данных
Ни одного трека нет в базе AccurateRip
Конец отчёта


Black Heaven - Trugbild
Правила, инструкции, FAQ!!!
Торрент  Добавлен [26 июн 2020, 17:40] Скачать торрент Магнет ссылка
Скачать торрент
[ Размер 15.81 КБ / Просмотров 7 ]

Статус
Проверен 
 
Размер  373.82 МБ
Приватный: Нет (DHT включён)
.torrent скачан  0
 


     Отправить личное сообщение
   
Страница 1 из 1
Показать сообщения за:  Поле сортировки  
Начать новую тему Ответить на тему


Сейчас этот форум просматривают: нет зарегистрированных пользователей и гости: 0


Вы не можете начинать темы
Вы не можете отвечать на сообщения
Вы не можете редактировать свои сообщения
Вы не можете удалять свои сообщения
Вы не можете добавлять вложения

Перейти:  
cron