Начать новую тему Ответить на тему
Статистика раздачи
Размер: 459.22 МБ | Добавлен: 26 июн 2020, 20:23 | Скачали: 0
Сидеров: 1  [0 байт/сек]    Личеров: 0  [0 байт/сек]
Пред. тема | След. тема 

Автор
Сообщение

СообщениеДобавлено: 26 июн 2020, 20:23 

Ответить с цитатой 

Blind Passenger / Next Flight To Planet Earth
Жанр: synth gothic
Страна-производитель диска: Germany
Год издания диска: 2010
Издатель (лейбл): Wannasee Records
Номер по каталогу: KAT-NO SEE 069
Аудио кодек: FLAC (*.flac)
Тип рипа: image+.cue
Битрейт аудио: lossless
Продолжительность: 54:13.09
Источник (релизер): Физический носитель
Наличие сканов в содержимом раздачи: да
Треклист:
01. Don't Drag Me Down (feat. Joke Jay [ex-And One]) [5:01]
02. Electrocop (feat. Jamie H. Stewart [Mutate Now]) [4:33]
03. Sincity [4:20]
04. Heart Of A Sun [3:35]
05. Small Town Night 2010 [4:00]
06. Chemical Rocket Engines [1:47]
07. Galaxy Of Passion (feat. Victoria Valo) [4:03]
08. Neverland [4:03]
09. Alien [4:28]
10. Last Call For Planet Earth [3:04]
11. Fight (feat. Gary Wagner [Dance Or Die]) [5:14]
12. Riding On My Rocking Horse [10:04]
Код:
Exact Audio Copy V0.99 prebeta 5 from 4. May 2009
Отчёт EAC об извлечении, выполненном 16. ноября 2010, 19:17
Blind Passenger / Next Flight To Planet Earth
Дисковод: Optiarc DVD RW AD-7173A   Adapter: 0  ID: 0
Режим чтения                 : Достоверность
Использование точного потока : Да
Отключение кэша аудио        : Да
Использование указателей C2  : Нет
Коррекция смещения при чтении                     : 48
Способность читать области Lead-in и Lead-out     : Нет
Заполнение пропущенных сэмплов тишиной            : Да
Удаление блоков с тишиной в начале и конце        : Нет
При вычислениях CRC использовались нулевые сэмплы : Да
Интерфейс                                         : Установленный внешний ASPI-интерфейс
Выходной формат          : Пользовательский кодировщик
Выбранный битрейт        : 1024 kBit/s
Качество                 : Высокий
Добавление ID3-тэга      : Нет
Утилита сжатия           : C:\Program Files\Exact Audio Copy\flac.exe
Дополнительные параметры : -6 -V -T "ARTIST=%a" -T "TITLE=%t" -T "ALBUM=%g" -T "DATE=%y" -T "TRACKNUMBER=%n" -T "GENRE=%m" -T "COMMENT=%e" %s -o %d
TOC извлечённого CD
     Трек |   Старт  | Длительность | Начальный сектор | Конечный сектор
    ---------------------------------------------------------------------
       1  |  0:00.00 |    5:01.34   |           0      |      22608
       2  |  5:01.34 |    4:33.26   |       22609      |      43109
       3  |  9:34.60 |    4:19.44   |       43110      |      62578
       4  | 13:54.29 |    3:34.49   |       62579      |      78677
       5  | 17:29.03 |    4:00.25   |       78678      |      96702
       6  | 21:29.28 |    1:47.16   |       96703      |     104743
       7  | 23:16.44 |    4:02.68   |      104744      |     122961
       8  | 27:19.37 |    4:03.34   |      122962      |     141220
       9  | 31:22.71 |    4:28.03   |      141221      |     161323
      10  | 35:50.74 |    3:04.20   |      161324      |     175143
      11  | 38:55.19 |    5:14.01   |      175144      |     198694
      12  | 44:09.20 |   10:03.64   |      198695      |     243983
      13  | 56:45.09 |    6:40.74   |      255384      |     285457
Характеристики диапазона извлечения и сообщения об ошибках
Выбранный диапазон
     Имя файла H:\СКАЧКА\FLAC\1 TORRENT\Blind Passenger - Next Flight To Planet Earth.wav
     Пиковый уровень 98.8 %
     Качество диапазона 100.0 %
     CRC теста FF606737
     CRC копии FF606737
     Копирование... OK
Ошибок не произошло
AccurateRip: сводка
Трек  1  нет в базе данных
Трек  2  нет в базе данных
Трек  3  нет в базе данных
Трек  4  нет в базе данных
Трек  5  нет в базе данных
Трек  6  нет в базе данных
Трек  7  нет в базе данных
Трек  8  нет в базе данных
Трек  9  нет в базе данных
Трек 10  нет в базе данных
Трек 11  нет в базе данных
Трек 12  нет в базе данных
Ни одного трека нет в базе AccurateRip
Конец отчёта
Видео
Разрешение: 352x288 (1,22:1)
Кадров в секунду: 25,000
Битрейт: 10807 Kbps
Фактор качества: 0,73 b/px
Кодек: MPEG 1
Аудио
Количество каналов: 2
Частота дискредитации: 48000 Hz
Битрейт: 112 Kbps
Кодек: MPEG 1 Layer 2
Правила, инструкции, FAQ!!!
Торрент  Добавлен [26 июн 2020, 20:23] Скачать торрент Магнет ссылка
Скачать торрент
[ Размер 19.32 КБ / Просмотров 9 ]

Статус
Проверен 
 
Размер  459.22 МБ
Приватный: Нет (DHT включён)
.torrent скачан  0
 


     Отправить личное сообщение
   
Страница 1 из 1
Показать сообщения за:  Поле сортировки  
Начать новую тему Ответить на тему


Сейчас этот форум просматривают: нет зарегистрированных пользователей и гости: 0


Вы не можете начинать темы
Вы не можете отвечать на сообщения
Вы не можете редактировать свои сообщения
Вы не можете удалять свои сообщения
Вы не можете добавлять вложения

Перейти:  
cron