Начать новую тему Ответить на тему
Статистика раздачи
Размер: 359.05 МБ | Добавлен: 26 июн 2020, 18:53 | Скачали: 0
Сидеров: 0  [0 байт/сек]    Личеров: 0  [0 байт/сек]
Пред. тема | След. тема 

Автор
Сообщение

СообщениеДобавлено: 26 июн 2020, 18:53 

Ответить с цитатой 

Anders Manga - Welcome To The Horror Show
Жанр: synth gothic
Год выпуска диска: 2006
Производитель диска: (Vampture Records, USA)
Аудио кодек: FLAC
Тип рипа: image+.cue
Битрейт аудио: lossless
Продолжительность: 44:24.65
Трэклист:
01. The Shrine [4:04]
02. Welcome To The Horror Show [4:39]
03. Beautiful [4:41]
04. Them [3:57]
05. Residual Fear [4:29]
06. 5150 [1:57]
07. Here [5:40]
08. Lovely Sort Of Death [4:15]
09. The Mercy Seat [6:36]
10. You Should Be Dead By Now [4:08]
Источник: Физический носитель
Код:
Exact Audio Copy V0.99 prebeta 5 from 4. May 2009
Отчёт EAC об извлечении, выполненном 13. февраля 2010, 18:42
Anders Manga / Welcome To The Horror Show
Дисковод: Optiarc DVD RW AD-7173A   Adapter: 0  ID: 0
Режим чтения                 : Достоверность
Использование точного потока : Да
Отключение кэша аудио        : Да
Использование указателей C2  : Нет
Коррекция смещения при чтении                     : 48
Способность читать области Lead-in и Lead-out     : Нет
Заполнение пропущенных сэмплов тишиной            : Да
Удаление блоков с тишиной в начале и конце        : Нет
При вычислениях CRC использовались нулевые сэмплы : Да
Интерфейс                                         : Установленный внешний ASPI-интерфейс
Выходной формат          : Пользовательский кодировщик
Выбранный битрейт        : 1024 kBit/s
Качество                 : Высокий
Добавление ID3-тэга      : Нет
Утилита сжатия           : C:\Program Files\Exact Audio Copy\Flac\flac.exe
Дополнительные параметры : -6 -V -T "ARTIST=%a" -T "TITLE=%t" -T "ALBUM=%g" -T "DATE=%y" -T "TRACKNUMBER=%n" -T "GENRE=%m" -T "COMMENT=%e" %s -o %d
TOC извлечённого CD
     Трек |   Старт  | Длительность | Начальный сектор | Конечный сектор
    ---------------------------------------------------------------------
       1  |  0:00.00 |    4:03.65   |           0      |      18289
       2  |  4:03.65 |    4:38.46   |       18290      |      39185
       3  |  8:42.36 |    4:40.74   |       39186      |      60259
       4  | 13:23.35 |    3:57.02   |       60260      |      78036
       5  | 17:20.37 |    4:28.50   |       78037      |      98186
       6  | 21:49.12 |    1:57.24   |       98187      |     106985
       7  | 23:46.36 |    5:39.71   |      106986      |     132481
       8  | 29:26.32 |    4:15.10   |      132482      |     151616
       9  | 33:41.42 |    6:35.50   |      151617      |     181291
      10  | 40:17.17 |    4:07.48   |      181292      |     199864
Характеристики диапазона извлечения и сообщения об ошибках
Выбранный диапазон
     Имя файла H:\СКАЧКА\FLAC\1 TORRENT\Anders Manga - Welcome To The Horror Show.wav
     Пиковый уровень 100.0 %
     Качество диапазона 99.9 %
     CRC теста 8F131C55
     CRC копии 8F131C55
     Копирование... OK
Ошибок не произошло
AccurateRip: сводка
Трек  1  точное извлечение (доверие 1)  [534955FF]
Трек  2  точное извлечение (доверие 1)  [DB698D80]
Трек  3  точное извлечение (доверие 1)  [0D53601D]
Трек  4  точное извлечение (доверие 1)  [8D58E274]
Трек  5  точное извлечение (доверие 1)  [A55E28BC]
Трек  6  точное извлечение (доверие 1)  [356FDAE4]
Трек  7  точное извлечение (доверие 1)  [213EFD80]
Трек  8  точное извлечение (доверие 1)  [303D194A]
Трек  9  точное извлечение (доверие 1)  [A475BD77]
Трек 10  точное извлечение (доверие 1)  [9F52CD03]
Все треки извлечены точно
Конец отчёта
Хочешь скачать, но не можешь из-за отсутствия сидов - пиши в личку!
Правила, инструкции, FAQ!!!
Торрент  Добавлен [26 июн 2020, 18:53] Скачать торрент Магнет ссылка
Скачать торрент
[ Размер 15.12 КБ / Просмотров 4 ]

Статус
Проверен 
 
Размер  359.05 МБ
Приватный: Нет (DHT включён)
.torrent скачан  0
 


     Отправить личное сообщение
   
Страница 1 из 1
Показать сообщения за:  Поле сортировки  
Начать новую тему Ответить на тему


Сейчас этот форум просматривают: нет зарегистрированных пользователей и гости: 0


Вы не можете начинать темы
Вы не можете отвечать на сообщения
Вы не можете редактировать свои сообщения
Вы не можете удалять свои сообщения
Вы не можете добавлять вложения

Перейти:  
cron