Начать новую тему Ответить на тему
Статистика раздачи
Размер: 366.28 МБ | Добавлен: 26 июн 2020, 17:29 | Скачали: 0
Сидеров: 2  [0 байт/сек]    Личеров: 1  [0 байт/сек]
Пред. тема | След. тема 

Автор
Сообщение

СообщениеДобавлено: 26 июн 2020, 17:29 

Ответить с цитатой 

Anders Manga - Left Of An All-Time Low
Жанр: synth gothic
Год выпуска диска: 2006
Производитель диска: (Vampture Records, USA)
Аудио кодек: FLAC
Тип рипа: image+.cue
Битрейт аудио: lossless
Продолжительность: 46:16.59
Трэклист:
01. This Circle [4:01]
02. Empire On The Sun [4:37]
03. Mutiny [3:17]
04. Gypsy [3:16]
05. Bloodletting On The Kiss [5:14]
06. Glamour [3:30]
07. What's That Hell In Your Heaven [3:47]
08. Character In Charm [4:29]
09. Innocence End [4:38]
10. Bad Girls Go To Hell [4:34]
11. Surrender [4:54]
Источник: Физический носитель
Код:
Exact Audio Copy V0.99 prebeta 5 from 4. May 2009
Отчёт EAC об извлечении, выполненном 14. февраля 2010, 9:55
Anders Manga / Left Of An All-Time Low
Дисковод: Optiarc DVD RW AD-7173A   Adapter: 0  ID: 0
Режим чтения                 : Достоверность
Использование точного потока : Да
Отключение кэша аудио        : Да
Использование указателей C2  : Нет
Коррекция смещения при чтении                     : 48
Способность читать области Lead-in и Lead-out     : Нет
Заполнение пропущенных сэмплов тишиной            : Да
Удаление блоков с тишиной в начале и конце        : Нет
При вычислениях CRC использовались нулевые сэмплы : Да
Интерфейс                                         : Установленный внешний ASPI-интерфейс
Выходной формат          : Пользовательский кодировщик
Выбранный битрейт        : 1024 kBit/s
Качество                 : Высокий
Добавление ID3-тэга      : Нет
Утилита сжатия           : C:\Program Files\Exact Audio Copy\Flac\flac.exe
Дополнительные параметры : -6 -V -T "ARTIST=%a" -T "TITLE=%t" -T "ALBUM=%g" -T "DATE=%y" -T "TRACKNUMBER=%n" -T "GENRE=%m" -T "COMMENT=%e" %s -o %d
TOC извлечённого CD
     Трек |   Старт  | Длительность | Начальный сектор | Конечный сектор
    ---------------------------------------------------------------------
       1  |  0:00.00 |    4:00.55   |           0      |      18054
       2  |  4:00.55 |    4:37.18   |       18055      |      38847
       3  |  8:37.73 |    3:16.52   |       38848      |      53599
       4  | 11:54.50 |    3:15.58   |       53600      |      68282
       5  | 15:10.33 |    5:14.15   |       68283      |      91847
       6  | 20:24.48 |    3:30.34   |       91848      |     107631
       7  | 23:55.07 |    3:47.05   |      107632      |     124661
       8  | 27:42.12 |    4:28.63   |      124662      |     144824
       9  | 32:11.00 |    4:37.72   |      144825      |     165671
      10  | 36:48.72 |    4:33.42   |      165672      |     186188
      11  | 41:22.39 |    4:54.20   |      186189      |     208258
Характеристики диапазона извлечения и сообщения об ошибках
Выбранный диапазон
     Имя файла H:\СКАЧКА\FLAC\1 TORRENT\Anders Manga - Left Of An All-Time Low.wav
     Пиковый уровень 100.0 %
     Качество диапазона 99.9 %
     CRC теста 24C28EA7
     CRC копии 24C28EA7
     Копирование... OK
Ошибок не произошло
AccurateRip: сводка
Трек  1  точное извлечение (доверие 1)  [292BB91F]
Трек  2  точное извлечение (доверие 1)  [29BC9A7D]
Трек  3  точное извлечение (доверие 1)  [BDD7F7CC]
Трек  4  точное извлечение (доверие 1)  [84BFF791]
Трек  5  точное извлечение (доверие 1)  [0A022047]
Трек  6  точное извлечение (доверие 1)  [D0F8884C]
Трек  7  точное извлечение (доверие 1)  [21F12D7E]
Трек  8  точное извлечение (доверие 1)  [FEB32007]
Трек  9  точное извлечение (доверие 1)  [A5347B2E]
Трек 10  точное извлечение (доверие 1)  [B71AD214]
Трек 11  точное извлечение (доверие 1)  [1C0EE5E3]
Все треки извлечены точно
Конец отчёта
Хочешь скачать, но не можешь из-за отсутствия сидов - пиши в личку!
Правила, инструкции, FAQ!!!
Торрент  Добавлен [26 июн 2020, 17:29] Скачать торрент Магнет ссылка
Скачать торрент
[ Размер 15.3 КБ / Просмотров 8 ]

Статус
Проверен 
 
Размер  366.28 МБ
Приватный: Нет (DHT включён)
.torrent скачан  0
 


     Отправить личное сообщение
   
Страница 1 из 1
Показать сообщения за:  Поле сортировки  
Начать новую тему Ответить на тему


Сейчас этот форум просматривают: нет зарегистрированных пользователей и гости: 0


Вы не можете начинать темы
Вы не можете отвечать на сообщения
Вы не можете редактировать свои сообщения
Вы не можете удалять свои сообщения
Вы не можете добавлять вложения

Перейти:  
cron