Начать новую тему Ответить на тему
Статистика раздачи
Размер: 399.58 МБ | Добавлен: 26 июн 2020, 19:55 | Скачали: 0
Сидеров: 1  [0 байт/сек]    Личеров: 0  [0 байт/сек]
Пред. тема | След. тема 

Автор
Сообщение

СообщениеДобавлено: 26 июн 2020, 19:55 

Ответить с цитатой 

Bleeding Nature-Demo
Жанр: Synth-Goth/Darkwave
Год выпуска диска: 2002
Производитель диска: Россия
Аудио кодек: FLAC
Тип рипа: image+.cue
Битрейт аудио: lossless
Продолжительность: 53:28
Треклист:
1.Падать-летать
2.Тихий танец
3.Невеста
4.Пустота
5.Отдай им себя
6.Ты не проснёшься со мной
7.В холодной постели
8.Не оставляй меня
9.Танцуй со мной
10.Под снегом
11.decaDANCE
Источник:: CD-R
Exact Audio Copy V0.99 prebeta 5 from 4. May 2009
Отчёт EAC об извлечении, выполненном 18. августа 2010, 0:29
Bleeding Nature / Demo
Дисковод: Optiarc DVD RW AD-7200A Adapter: 1 ID: 0
Режим чтения : Достоверность
Использование точного потока : Да
Отключение кэша аудио : Да
Использование указателей C2 : Нет
Коррекция смещения при чтении : 48
Способность читать области Lead-in и Lead-out : Нет
Заполнение пропущенных сэмплов тишиной : Да
Удаление блоков с тишиной в начале и конце : Нет
При вычислениях CRC использовались нулевые сэмплы : Да
Интерфейс : Установленный внешний ASPI-интерфейс
Выходной формат : Внутренние WAV-операции
Формат сэмплов : 44.100 Гц; 16 бит; стерео
TOC извлечённого CD
Трек | Старт | Длительность | Начальный сектор | Конечный сектор
---------------------------------------------------------------------
1 | 0:00.00 | 4:59.45 | 0 | 22469
2 | 4:59.45 | 4:31.54 | 22470 | 42848
3 | 9:31.24 | 5:38.16 | 42849 | 68214
4 | 15:09.40 | 4:58.61 | 68215 | 90625
5 | 20:08.26 | 5:36.07 | 90626 | 115832
6 | 25:44.33 | 3:39.40 | 115833 | 132297
7 | 29:23.73 | 4:54.70 | 132298 | 154417
8 | 34:18.68 | 5:14.54 | 154418 | 178021
9 | 39:33.47 | 4:32.66 | 178022 | 198487
10 | 44:06.38 | 4:41.56 | 198488 | 219618
11 | 48:48.19 | 4:40.03 | 219619 | 240621
Характеристики диапазона извлечения и сообщения об ошибках
Выбранный диапазон
Имя файла K:\sgrab\Bleeding Nature - Demo.wav
Пиковый уровень 100.0 %
Качество диапазона 100.0 %
CRC теста 81D90639
CRC копии 81D90639
Копирование... OK
Ошибок не произошло
AccurateRip: сводка
Трек 1 нет в базе данных
Трек 2 нет в базе данных
Трек 3 нет в базе данных
Трек 4 нет в базе данных
Трек 5 нет в базе данных
Трек 6 нет в базе данных
Трек 7 нет в базе данных
Трек 8 нет в базе данных
Трек 9 нет в базе данных
Трек 10 нет в базе данных
Трек 11 нет в базе данных
Ни одного трека нет в базе AccurateRip
Конец отчёта
Правила, инструкции, FAQ!!!
Торрент  Добавлен [26 июн 2020, 19:55] Скачать торрент Магнет ссылка
Скачать торрент
[ Размер 1.6 КБ / Просмотров 17 ]

Статус
Проверен 
 
Размер  399.58 МБ
Приватный: Нет (DHT включён)
.torrent скачан  0
 


     Отправить личное сообщение
   
Страница 1 из 1
Показать сообщения за:  Поле сортировки  
Начать новую тему Ответить на тему


Сейчас этот форум просматривают: нет зарегистрированных пользователей и гости: 0


Вы не можете начинать темы
Вы не можете отвечать на сообщения
Вы не можете редактировать свои сообщения
Вы не можете удалять свои сообщения
Вы не можете добавлять вложения

Перейти:  
cron