Начать новую тему Ответить на тему
Статистика раздачи
Размер: 193.21 МБ | Добавлен: 10 окт 2020, 20:15 | Скачали: 1
Сидеров: 1  [0 байт/сек]    Личеров: 0  [0 байт/сек]
Пред. тема | След. тема 

Автор
Сообщение

СообщениеДобавлено: 10 окт 2020, 20:15 

Ответить с цитатой 

James 'Creole' Thomas — "Omas Sextet"
_________________________________

#777
JAMES 'CREOLE' THOMAS (currently): Mauritius (Port Louis, Port Louis)
GENRES: Soul Jazz | Broken Beat | Jazz-Funk
LABEL: 22a Music (UK)
CATALOG: 22a 021
FORMAT: web | Album
SOURCE: # сомнительный
CODEC: FLAC (*.flac)
TYPE: tracks
BITRATE: lossless
RELEASED: 04.05.2018
.
track listing
01. Intro (01:20)
02. First Ways (03:56)
03. Lead by No One (03:33)
04. Understand (00:38)
05. Soul Sub City (03:15)
06. Melting Pot (01:07)
07. Earth (03:02)
08. Composed (Interlude) (00:27)
09. No Need to Wait (02:51)
10. Phazed Out (02:23)
11. Creole People (00:26)
12. The Plumb Blossom (04:06)
13. Nadusilma (02:46)
14. Too Black (01:03)
15. The Mighty R.P.Y (03:00)
16. Who Am I? Outro (00:16)
total length (00:34:00)

Код:
[b][color=#0f0f0f]-----------------------
[/color]DON'T MODIFY THIS FILE
[/b]-----------------------
PERFORMER: auCDtect Task Manager, ver. 1.6.0 RC1 build 1.6.0.1
Copyright (c) 2008-2010 y-soft. All rights reserved
ANALYZER: auCDtect: CD records authenticity detector, version 0.8.2
Copyright (c) 2004 Oleg Berngardt. All rights reserved.
Copyright (c) 2004 Alexander Djourik. All rights reserved.
FILE: 16. Who Am I. Outro.flac
  Size: 1314849 Hash: 148CBCF1575FEE95991CE6A7A155D01D Accuracy: -m0
  Conclusion: CDDA 100%
  Signature: 100C87D7DCDF8437CF71D6BEE9A7DAA349EB9F21
FILE: 15. The Mighty R.P.Y.flac
  Size: 17684674 Hash: E90B271016CA02033C40BDC9170497A1 Accuracy: -m0
  Conclusion: CDDA 100%
  Signature: 3E1DFCB4A5C7F7F4DF18766FBE2EFCA5A9818054
FILE: 14. Too Black.flac
  Size: 5207116 Hash: A368B651DFD6F7490DB5A3D89320BB24 Accuracy: -m0
  Conclusion: CDDA 100%
  Signature: 7DB609242159380438FF3A39B92680FC97BB03A0
FILE: 13. Nadusilma.flac
  Size: 17887631 Hash: C5622B6D6243BBA4BEC1A89FFC8D7116 Accuracy: -m0
  Conclusion: CDDA 99%
  Signature: 4A3AC8F9D2064B7DCD08B42590AAE0807D3DEA98
FILE: 12. The Plumb Blossom.flac
  Size: 24069587 Hash: 23405E4BE0F3DBE59F486874108035EA Accuracy: -m0
  Conclusion: CDDA 100%
  Signature: B8AC8F1E35B38E2055251351C3E75C22737C6E15
FILE: 11. Creole People.flac
  Size: 2384745 Hash: E51466F48706E9661A18161596FBDCA0 Accuracy: -m0
  Conclusion: CDDA 100%
  Signature: E8B598FFFE301DAB5C5E0CE3351D6C4050719DDE
FILE: 10. Phazed Out.flac
  Size: 11880872 Hash: 97360A94746C043B4B353DC3192EDFFE Accuracy: -m0
  Conclusion: CDDA 43%
  Signature: BA3CD7401C78276BC49B8CD1F7AFBE858BE4173B
FILE: 09. No Need to Wait.flac
  Size: 18417276 Hash: 9D8D2CAA1C8F49768B0331FC25DB8E4B Accuracy: -m0
  Conclusion: CDDA 100%
  Signature: EEFF34A2379C56F26918C708FB4828A23B36FDAB
FILE: 08. Composed (Interlude).flac
  Size: 3028219 Hash: 9B37951801FBAB3781C1FF484F15371C Accuracy: -m0
  Conclusion: CDDA 100%
  Signature: 10F29142FA30F0505D137E205FD9EB2A1C346BC5
FILE: 07. Earth.flac
  Size: 18626961 Hash: 4B2486148D97161A5D66E4620B7EE12D Accuracy: -m0
  Conclusion: CDDA 100%
  Signature: A658B5CB34D19EB712E6FEFE205CF0A66A065979
FILE: 06. Melting Pot.flac
  Size: 6354905 Hash: 336EE688106E0FC93DB08021A240D624 Accuracy: -m0
  Conclusion: CDDA 100%
  Signature: 66465463B0B6C06EBF99C77731ACA14E2CA84608
FILE: 05. Soul Sub City.flac
  Size: 20340843 Hash: 490A8008F35BC07543C9F6E80E5D4AA4 Accuracy: -m0
  Conclusion: CDDA 100%
  Signature: 7791C60D2D814E8FF4B841A5FD3CDA8CD6CFFCBF
FILE: 04. Understand.flac
  Size: 3314941 Hash: E23F3EC58E6388F89490B8B7CCB55AFE Accuracy: -m0
  Conclusion: CDDA 100%
  Signature: BA43E8D971E7B8A4D149C8F4003622BCB377775E
FILE: 03. Lead by No One.flac
  Size: 19511833 Hash: 9D7B1352A127FC311BFEF2292CBEB238 Accuracy: -m0
  Conclusion: CDDA 100%
  Signature: 401531E33C09D6A297B1DC3E53E8F8F0E00097D7
FILE: 02. First Ways.flac
  Size: 25183675 Hash: 449DF64D6AF6CBBBC6F78B85E8C139BB Accuracy: -m0
  Conclusion: CDDA 100%
  Signature: 428FDD7D3A6D50F9A5185DFA1D61BEBCEB8F5D0A
FILE: 01. Intro.flac
  Size: 6798646 Hash: 4C0FFD81878052534B4461C9E074626E Accuracy: -m0
  Conclusion: CDDA 100%
  Signature: AC7663ADBC7F8952303599693AEE627BE0F58A9C
Код:
[b][color=#0f0f0f]foobar2000 1.3.9 / Dynamic Range Meter 1.1.1
log date: 2020-10-08 01:16:38
[/color]--------------------------------------------------------------------------------
Analyzed: James 'Creole' Thomas / Omas Sextet
--------------------------------------------------------------------------------
[/b]DR         Peak         RMS     Duration Track
--------------------------------------------------------------------------------
DR7       -1.00 dB    -9.45 dB      1:20 01-Intro
DR8       -0.36 dB    -9.57 dB      3:55 02-First Ways
DR9       -0.41 dB   -10.86 dB      3:32 03-Lead by No One
DR7       -0.53 dB    -9.47 dB      0:37 04-Understand
DR7       -0.33 dB    -8.08 dB      3:15 05-Soul Sub City
DR7       -0.44 dB    -8.68 dB      1:06 06-Melting Pot
DR7       -0.41 dB    -8.70 dB      3:01 07-Earth
DR7       -0.60 dB    -8.83 dB      0:27 08-Composed (Interlude)
DR7       -1.00 dB    -9.13 dB      2:51 09-No Need to Wait
DR6       -0.56 dB    -7.94 dB      2:22 10-Phazed Out
DR6       -0.27 dB    -8.44 dB      0:26 11-Creole People
DR9       -0.37 dB   -10.93 dB      4:06 12-The Plumb Blossom
DR7       -0.28 dB    -8.14 dB      2:45 13-Nadusilma
DR5       -0.78 dB    -8.41 dB      1:02 14-Too Black
DR9       -0.13 dB   -10.05 dB      2:59 15-The Mighty R.P.Y
DR6       -3.25 dB   -11.46 dB      0:15 16-Who Am I? Outro
--------------------------------------------------------------------------------
Number of tracks:  16
Official DR value: DR7
Samplerate:        44100 Hz
Channels:          2
Bits per sample:   16
Bitrate:           648 kbps
Codec:             FLAC
================================================================================
Правила, инструкции, FAQ!!!
Торрент  Добавлен [10 окт 2020, 20:15] Скачать торрент Магнет ссылка
Скачать торрент
[ Размер 16.44 КБ / Просмотров 5 ]

Статус
Проверен 
 
Размер  193.21 МБ
Приватный: Нет (DHT включён)
.torrent скачан  1
 


     Отправить личное сообщение
   
Страница 1 из 1
Показать сообщения за:  Поле сортировки  
Начать новую тему Ответить на тему


Сейчас этот форум просматривают: нет зарегистрированных пользователей и гости: 0


Вы не можете начинать темы
Вы не можете отвечать на сообщения
Вы не можете редактировать свои сообщения
Вы не можете удалять свои сообщения
Вы не можете добавлять вложения

Перейти:  
cron