Начать новую тему Ответить на тему
Статистика раздачи
Размер: 392.25 МБ | Добавлен: 26 мар 2019, 19:25 | Скачали: 0
Сидеров: 0  [0 байт/сек]    Личеров: 0  [0 байт/сек]
Пред. тема | След. тема 

Автор
Сообщение

СообщениеДобавлено: 26 мар 2019, 19:25 

Ответить с цитатой 

Ross Copperman - Welcome To Reality

Жанр: Rock, Soft-Rock
Носитель: WEB
Год издания: 2007
Издатель (лейбл): Phonogenic
Страна исполнителя: US
Аудиокодек: FLAC (*.flac)
Тип рипа: tracks
Битрейт аудио: lossless
Продолжительность: 00:56:31
Источник: CDBaby
Наличие сканов: front cover
Треклист:
01. All She Wrote 3:56
02. Found You 3:56
03. Guilty Pleasure 3:43
04. Fly Away 3:43
05. As I Choke 4:34
06. Get By 3:51
07. Can't Stop Loving You 3:38
08. Believe 3:41
09. I Don't Wanna Let You Go 3:17
10. Lucky Day 3:31
11. Getaway 3:51
12. Shout 3:58
13. They'll Never Know 10:47
Код:
-----------------------
DON'T MODIFY THIS FILE
-----------------------
PERFORMER: auCDtect Task Manager, ver. 1.6.0 RC1 build 1.6.0.1
Copyright (c) 2008-2010 y-soft. All rights reserved
[url=http://y-soft.org]http://y-soft.org[/url]
ANALYZER: auCDtect: CD records authenticity detector, version 0.8.2
Copyright (c) 2004 Oleg Berngardt. All rights reserved.
Copyright (c) 2004 Alexander Djourik. All rights reserved.
FILE: 13 - They'll Never Know.flac
  Size: 52445966 Hash: 96190CF6F9E3E8B96832CBB488836A08 Accuracy: -m0
  Conclusion: CDDA 100%
  Signature: 52AF5037BC592A9F61B896CD8FAFB683F16AA538
FILE: 12 - Shout.flac
  Size: 33301878 Hash: 95FB5EE75DD04C0FA4081D23AECF5A03 Accuracy: -m0
  Conclusion: CDDA 100%
  Signature: 9C8EC2D055410FF2D855C9EEDCB28DAFA3445C00
FILE: 11 - Getaway.flac
  Size: 31600808 Hash: 9CD1EB9DFE6C7BD9265C2A64A07B7441 Accuracy: -m0
  Conclusion: CDDA 100%
  Signature: AC75D396B8ED2E62DB353E9D35946C5944BC128F
FILE: 10 - Lucky Day.flac
  Size: 27830152 Hash: 781737892A152AED8D4446D1E5184B7B Accuracy: -m0
  Conclusion: CDDA 100%
  Signature: 4D84BA65587AA5DCA484A7E44B462AA917A1A1D5
FILE: 09 - I Don't Wanna Let You Go.flac
  Size: 26074378 Hash: 23D02FD56E4137C9D0878349368A85B3 Accuracy: -m0
  Conclusion: CDDA 99%
  Signature: 91C3BF8C83D27CBF731E3308C4053B565B3A92B9
FILE: 08 - Believe.flac
  Size: 25742656 Hash: 33769CA06FA83CFE8F00336681EEAAAB Accuracy: -m0
  Conclusion: CDDA 100%
  Signature: B6682B0903BA575A0244F780A2EBD227E269B928
FILE: 07 - Can't Stop Loving You.flac
  Size: 30001558 Hash: 6360ECA6C52FB55992B4A733F20FD504 Accuracy: -m0
  Conclusion: CDDA 100%
  Signature: AA95B1E6F1DA87B898DC5028B82D27FCD385982E
FILE: 06 - Get By.flac
  Size: 30885929 Hash: 58319451CC47B6D575BC782099606955 Accuracy: -m0
  Conclusion: CDDA 100%
  Signature: 980D0376041CE35FAEAA22F146B406F0C5D1C41E
FILE: 05 - As I Choke.flac
  Size: 34170481 Hash: 6C92C1B8A8E9B0FA85B53FFD6AA86EF7 Accuracy: -m0
  Conclusion: CDDA 100%
  Signature: BCDB4CE1648419EC05112ED7188899E85610D550
FILE: 04 - Fly Away.flac
  Size: 27771717 Hash: 48DD324F3E87715CFDA6BA20F2596245 Accuracy: -m0
  Conclusion: CDDA 100%
  Signature: B846FEAA5BBEDBDA6B5765ED747D753A021037E2
FILE: 03 - Guilty Pleasure.flac
  Size: 29434023 Hash: 04350CF98986CBA6A2F81ED748CA4C7F Accuracy: -m0
  Conclusion: CDDA 100%
  Signature: A870F0777A7FE240DE0C5443FAB26B0563801F37
FILE: 02 - Found You.flac
  Size: 29086109 Hash: 09C4DA5714FCD8C9C56137E64B10B2D1 Accuracy: -m0
  Conclusion: CDDA 100%
  Signature: 6D5EA1978EAE68ABA3993E41B090E9E291643636
FILE: 01 - All She Wrote.flac
  Size: 31825905 Hash: 18C02F0C1B32AC90D9014E3EA5AE76F6 Accuracy: -m0
  Conclusion: CDDA 100%
  Signature: 470403E50E0CACC71AC510D9136A2862DD1D5C99
Код:
foobar2000 1.3.7 / Dynamic Range Meter 1.1.1
log date: 2015-03-11 20:26:30
--------------------------------------------------------------------------------
Analyzed: Ross Copperman / Welcome To Reality
--------------------------------------------------------------------------------
DR         Peak         RMS     Duration Track
--------------------------------------------------------------------------------
DR4        0.00 dB    -6.24 dB      3:56 01-All She Wrote
DR4       -0.01 dB    -7.42 dB      3:56 02-Found You
DR5        0.00 dB    -6.29 dB      3:43 03-Guilty Pleasure
DR6        0.00 dB    -7.85 dB      3:43 04-Fly Away
DR4        0.00 dB    -6.41 dB      4:34 05-As I Choke
DR4       -0.01 dB    -6.15 dB      3:51 06-Get By
DR5       -0.01 dB    -6.10 dB      3:38 07-Can't Stop Loving You
DR5       -0.01 dB    -7.73 dB      3:41 08-Believe
DR5       -0.01 dB    -6.92 dB      3:17 09-I Don't Wanna Let You Go
DR5       -0.01 dB    -6.87 dB      3:31 10-Lucky Day
DR4       -0.01 dB    -6.02 dB      3:57 11-Getaway
DR4       -0.01 dB    -5.69 dB      3:58 12-Shout
DR6       -0.01 dB   -10.36 dB     10:47 13-They'll Never Know
--------------------------------------------------------------------------------
Number of tracks:  13
Official DR value: DR5
Samplerate:        44100 Hz
Channels:          2
Bits per sample:   16
Bitrate:           634 kbps
Codec:             FLAC
================================================================================
Код:
[url=https://fastpic.ru/view/65/2015/0311/993ad59fcf8d6b870cb30af12cd6eef7.jpg.html][img]http://i65.fastpic.ru/thumb/2015/0311/f7/993ad59fcf8d6b870cb30af12cd6eef7.jpeg[/img][/url]
Правила, инструкции, FAQ!!!
Торрент  Добавлен [26 мар 2019, 19:25] Скачать торрент Магнет ссылка
Скачать торрент
[ Размер 16.54 КБ / Просмотров 3 ]

Статус
Проверен 
 
Размер  392.25 МБ
Приватный: Нет (DHT включён)
.torrent скачан  0
 


     Отправить личное сообщение
   
Страница 1 из 1
Показать сообщения за:  Поле сортировки  
Начать новую тему Ответить на тему


Сейчас этот форум просматривают: нет зарегистрированных пользователей и гости: 0


Вы не можете начинать темы
Вы не можете отвечать на сообщения
Вы не можете редактировать свои сообщения
Вы не можете удалять свои сообщения
Вы не можете добавлять вложения

Перейти:  
cron