Начать новую тему Ответить на тему
Статистика раздачи
Размер: 152.5 МБ | Добавлен: 26 мар 2019, 19:26 | Скачали: 0
Сидеров: 0  [0 байт/сек]    Личеров: 0  [0 байт/сек]
Пред. тема | След. тема 

Автор
Сообщение

СообщениеДобавлено: 26 мар 2019, 19:26 

Ответить с цитатой 

Ross Copperman - Lighthouse Shine (EP)

Жанр: Pop, Soft-Rock
Носитель: WEB
Год издания: 2013
Издатель (лейбл): Me and Yew
Страна исполнителя: US
Аудиокодек: FLAC (*.flac)
Тип рипа: tracks
Битрейт аудио: lossless
Продолжительность: 00:24:02
Источник: CDBaby
Наличие сканов: front cover
Треклист:
01. Enough Is Never Gonna Be Enough 3:36
02. Say You Won't 2:40
03. Can't Live Without Your Love 4:22
04. How Many Heartbreaks 4:24
05. Lighthouse Shine 4:25
06. Help Is On The Way 4:36
Код:
-----------------------
DON'T MODIFY THIS FILE
-----------------------
PERFORMER: auCDtect Task Manager, ver. 1.6.0 RC1 build 1.6.0.1
Copyright (c) 2008-2010 y-soft. All rights reserved
[url=http://y-soft.org]http://y-soft.org[/url]
ANALYZER: auCDtect: CD records authenticity detector, version 0.8.2
Copyright (c) 2004 Oleg Berngardt. All rights reserved.
Copyright (c) 2004 Alexander Djourik. All rights reserved.
FILE: 06 - Help Is On the Way.flac
  Size: 29532906 Hash: D8E40B8DFDCBF46636A4A7496488BCA0 Accuracy: -m0
  Conclusion: CDDA 99%
  Signature: 4B82F94DE1E6B6B7DCDBBE197F0A0381A191D731
FILE: 05 - Lighthouse Shine.flac
  Size: 29970730 Hash: 2A538311C466C54D13F30E4654D63646 Accuracy: -m0
  Conclusion: CDDA 100%
  Signature: 247D12716CB8084B9C47B046B4BC1426BED10D8B
FILE: 04 - How Many Heartbreaks.flac
  Size: 30388503 Hash: B6F445255394156229703EB21C956821 Accuracy: -m0
  Conclusion: CDDA 100%
  Signature: 37D2704F4B0AA81FDD30AD5247F6664E8B917B68
FILE: 03 - Can't Live Without Your Love.flac
  Size: 27702233 Hash: 55832FDCD41B11B248203E5F6779635E Accuracy: -m0
  Conclusion: CDDA 99%
  Signature: 567B4ADCC83B096AAF4D7923E7C4A4B1BF123D7C
FILE: 02 - Say You Won't.flac
  Size: 19701164 Hash: C6219F0EE51083524470AD8E8C13ECEE Accuracy: -m0
  Conclusion: CDDA 100%
  Signature: EFF1CCF4D558E746D0BC26850471438BFEBA76A1
FILE: 01 - Enough Is Never Gonna Be Enough.flac
  Size: 22188349 Hash: 44ECFEEA9B57E9F8F651E38C7EEB8F87 Accuracy: -m0
  Conclusion: CDDA 100%
  Signature: 9C9E827C91FCB59C79336315A541F9E59376B819
Код:
foobar2000 1.3.7 / Dynamic Range Meter 1.1.1
log date: 2015-03-11 20:42:33
--------------------------------------------------------------------------------
Analyzed: Ross Copperman / Lighthouse Shine
--------------------------------------------------------------------------------
DR         Peak         RMS     Duration Track
--------------------------------------------------------------------------------
DR6       -0.10 dB    -8.94 dB      3:36 01-Enough Is Never Gonna Be Enough
DR6       -0.10 dB    -8.38 dB      2:40 02-Say You Won't
DR6       -0.10 dB    -9.41 dB      4:22 03-Can't Live Without Your Love
DR6       -0.10 dB    -8.46 dB      4:24 04-How Many Heartbreaks
DR6       -0.10 dB    -9.28 dB      4:25 05-Lighthouse Shine
DR7       -0.10 dB   -10.34 dB      4:36 06-Help Is On the Way
--------------------------------------------------------------------------------
Number of tracks:  6
Official DR value: DR6
Samplerate:        44100 Hz
Channels:          2
Bits per sample:   16
Bitrate:           845 kbps
Codec:             FLAC
================================================================================
Код:
[url=https://fastpic.ru/view/66/2015/0311/ce51b4c3f2d4f62615c3c16f7bf16f70.jpg.html][img]http://i66.fastpic.ru/thumb/2015/0311/70/ce51b4c3f2d4f62615c3c16f7bf16f70.jpeg[/img][/url]
Правила, инструкции, FAQ!!!
Торрент  Добавлен [26 мар 2019, 19:26] Скачать торрент Магнет ссылка
Скачать торрент
[ Размер 12.83 КБ / Просмотров 5 ]

Статус
Проверен 
 
Размер  152.5 МБ
Приватный: Нет (DHT включён)
.torrent скачан  0
 


     Отправить личное сообщение
   
Страница 1 из 1
Показать сообщения за:  Поле сортировки  
Начать новую тему Ответить на тему


Сейчас этот форум просматривают: нет зарегистрированных пользователей и гости: 0


Вы не можете начинать темы
Вы не можете отвечать на сообщения
Вы не можете редактировать свои сообщения
Вы не можете удалять свои сообщения
Вы не можете добавлять вложения

Перейти:  
cron