Начать новую тему Ответить на тему
Статистика раздачи
Размер: 247.27 МБ | Добавлен: 26 мар 2019, 20:31 | Скачали: 0
Сидеров: 0  [0 байт/сек]    Личеров: 0  [0 байт/сек]
Пред. тема | След. тема 

Автор
Сообщение

СообщениеДобавлено: 26 мар 2019, 20:31 

Ответить с цитатой 

Ross Copperman - Believe

Жанр: Pop, Soft-Rock
Носитель: WEB
Год издания: 2004
Издатель (лейбл): Ross Copperman
Страна исполнителя: US
Аудиокодек: FLAC (*.flac)
Тип рипа: tracks
Битрейт аудио: lossless
Продолжительность: 00:35:26
Источник: CDBaby
Наличие сканов: front cover
Треклист:
01. Wake Me Up 2:57
02. Ordinary 3:21
03. I Will Be Here 3:44
04. Stella 2:45
05. Angel By Your Side 2:58
06. Fly Away 3:23
07. Natalie 3:43
08. Dear Life 3:51
09. Believe 8:44
Код:
-----------------------
DON'T MODIFY THIS FILE
-----------------------
PERFORMER: auCDtect Task Manager, ver. 1.6.0 RC1 build 1.6.0.1
Copyright (c) 2008-2010 y-soft. All rights reserved
[url=http://y-soft.org]http://y-soft.org[/url]
ANALYZER: auCDtect: CD records authenticity detector, version 0.8.2
Copyright (c) 2004 Oleg Berngardt. All rights reserved.
Copyright (c) 2004 Alexander Djourik. All rights reserved.
FILE: 09 - Believe.flac
  Size: 52515957 Hash: FD1D5931CED994407261B4F76E3AD5CA Accuracy: -m0
  Conclusion: CDDA 100%
  Signature: ABEB6C51D6DF08E024B5529156060A2805AF374D
FILE: 08 - Dear Life.flac
  Size: 28352009 Hash: A551527EC353661D94E2E23E8CA6F240 Accuracy: -m0
  Conclusion: CDDA 99%
  Signature: 2D0F080EA891ED43DB526020A0535459E1C804F6
FILE: 07 - Natalie.flac
  Size: 28698366 Hash: F6132A36A8167FD4633B545334FBEA84 Accuracy: -m0
  Conclusion: CDDA 100%
  Signature: DEF9FC8CFB6FFA411AC9E018EAB2135D420B54A6
FILE: 06 - Fly Away.flac
  Size: 25866659 Hash: 027FF60A4B0A815872826204AF46B33C Accuracy: -m0
  Conclusion: CDDA 100%
  Signature: 0EFA8F28946F28DDFA2AD09401D7BF1CBC1AF23F
FILE: 05 - Angel By Your Side.flac
  Size: 24157268 Hash: 5980F502587D0DD00270FEE6ED3B90EC Accuracy: -m0
  Conclusion: CDDA 100%
  Signature: FF2659128A084BAF2099E68E1444837EFB4B8E6C
FILE: 04 - Stella.flac
  Size: 22121375 Hash: F961222C0C722534C690F84953209B50 Accuracy: -m0
  Conclusion: CDDA 100%
  Signature: DA1EF4A01B1201BF891E35FA3BF500EFF4BE8966
FILE: 03 - I Will Be Here.flac
  Size: 27297537 Hash: 5BDCA85F4D5D34F363DC1FD3195DF4D1 Accuracy: -m0
  Conclusion: CDDA 100%
  Signature: 893B695D9C67124837B1B2B26CEE7D1AA22B0E8F
FILE: 02 - Ordinary.flac
  Size: 25540989 Hash: 0F05A72B6951D101C306301A0ABEC9D0 Accuracy: -m0
  Conclusion: CDDA 100%
  Signature: 153A60782FCEEBD99D0C755F1459FD07B4B5CEAC
FILE: 01 - Wake Me Up.flac
  Size: 23752435 Hash: 0AC16A634C381B36158FA383102630BC Accuracy: -m0
  Conclusion: CDDA 100%
  Signature: 72FDAD30CD1D4FD0F734C2508B08209A4C07C60D
Код:
foobar2000 1.3.7 / Dynamic Range Meter 1.1.1
log date: 2015-03-11 19:20:00
--------------------------------------------------------------------------------
Analyzed: Ross Copperman / Believe
--------------------------------------------------------------------------------
DR         Peak         RMS     Duration Track
--------------------------------------------------------------------------------
DR7       -0.01 dB    -8.18 dB      2:57 01-Wake Me Up
DR7       -0.01 dB    -8.84 dB      3:21 02-Ordinary
DR6       -0.01 dB    -8.67 dB      3:44 03-I Will Be Here
DR7       -0.01 dB    -8.02 dB      2:45 04-Stella
DR7       -0.01 dB    -7.99 dB      2:58 05-Angel By Your Side
DR7       -0.01 dB    -8.61 dB      3:23 06-Fly Away
DR7       -0.01 dB    -8.71 dB      3:43 07-Natalie
DR7       -0.01 dB    -8.95 dB      3:51 08-Dear Life
DR8       -0.01 dB   -10.78 dB      8:44 09-Believe
--------------------------------------------------------------------------------
Number of tracks:  9
Official DR value: DR7
Samplerate:        44100 Hz
Channels:          2
Bits per sample:   16
Bitrate:           787 kbps
Codec:             FLAC
================================================================================
Код:
[url=https://fastpic.ru/view/59/2015/0311/c730fde3325b38bc287fd5f8e7d6aa0b.jpg.html][img]http://i59.fastpic.ru/thumb/2015/0311/0b/c730fde3325b38bc287fd5f8e7d6aa0b.jpeg[/img][/url]
Правила, инструкции, FAQ!!!
Торрент  Добавлен [26 мар 2019, 20:31] Скачать торрент Магнет ссылка
Скачать торрент
[ Размер 20.31 КБ / Просмотров 0 ]

Статус
Проверен 
 
Размер  247.27 МБ
Приватный: Нет (DHT включён)
.torrent скачан  0
 


     Отправить личное сообщение
   
Страница 1 из 1
Показать сообщения за:  Поле сортировки  
Начать новую тему Ответить на тему


Сейчас этот форум просматривают: нет зарегистрированных пользователей и гости: 0


Вы не можете начинать темы
Вы не можете отвечать на сообщения
Вы не можете редактировать свои сообщения
Вы не можете удалять свои сообщения
Вы не можете добавлять вложения

Перейти:  
cron