Начать новую тему Ответить на тему
Статистика раздачи
Размер: 273.59 МБ | Добавлен: 26 мар 2019, 19:16 | Скачали: 0
Сидеров: 0  [0 байт/сек]    Личеров: 0  [0 байт/сек]
Пред. тема | След. тема 

Автор
Сообщение

СообщениеДобавлено: 26 мар 2019, 19:16 

Ответить с цитатой 

John Blakeley, Jeff Larson / Daytrips
Жанр: Soft Rock, Surf
Носитель: CD
Страна-производитель диска (релиза): USA
Год издания: 2001
Издатель (лейбл): New Surf North
Номер по каталогу: Hey052
Страна исполнителя (группы): USA
Аудиокодек: FLAC (*.flac)
Тип рипа: image+.cue
Битрейт аудио: lossless
Продолжительность: 00:39:11
Источник (релизер): собственный рип
Наличие сканов в содержимом раздачи: да
Треклист:
1. Coastal Moon
2. Yesterday's Dream
3. Gray Wave
4. Something Aqua
5. Goes Without Saying
6. The Way Outside
7. Girl With Uke
8. Highstrung
9. Road 101
10. Wave Over Me
Код:
Exact Audio Copy V1.1 from 23. June 2015
Отчёт EAC об извлечении, выполненном 31. января 2016, 10:44
John Blakeley, Jeff Larson / Daytrips
Дисковод: ASUS    DRW-24B3ST   Adapter: 0  ID: 0
Режим чтения                 : Достоверность
Использование точного потока : Да
Отключение кэша аудио        : Да
Использование указателей C2  : Нет
Коррекция смещения при чтении                     : 6
Способность читать области Lead-in и Lead-out     : Нет
Заполнение пропущенных сэмплов тишиной            : Да
Удаление блоков с тишиной в начале и конце        : Нет
При вычислениях CRC использовались нулевые сэмплы : Да
Интерфейс                                         : Установленный внешний ASPI-интерфейс
Выходной формат          : Пользовательский кодировщик
Выбранный битрейт        : 896 kBit/s
Качество                 : Высокий
Добавление ID3-тега      : Нет
Утилита сжатия           : C:\Program Files (x86)\Exact Audio Copy\FLAC\FLAC.EXE
Дополнительные параметры : -6 -V -T "ARTIST=%artist%" -T "TITLE=%title%" -T "ALBUM=%albumtitle%" -T "DATE=%year%" -T "TRACKNUMBER=%tracknr%" -T "GENRE=%genre%" -T "COMMENT=%comment%" -T "BAND=%albuminterpret%" -T "ALBUMARTIST=%albuminterpret%" -T "COMPOSER=%composer%" %haslyrics%--tag-from-file=LYRICS="%lyricsfile%"%haslyrics% -T "DISCNUMBER=%cdnumber%" -T "TOTALDISCS=%totalcds%" -T "TOTALTRACKS=%numtracks%" %hascover%--picture="%coverfile%"%hascover% %source% -o %dest%
TOC извлечённого CD
     Трек |   Старт  | Длительность | Начальный сектор | Конечный сектор
    ---------------------------------------------------------------------
       1  |  0:00.00 |    3:49.31   |           0      |      17205
       2  |  3:49.31 |    4:10.13   |       17206      |      35968
       3  |  7:59.44 |    3:12.36   |       35969      |      50404
       4  | 11:12.05 |    4:54.19   |       50405      |      72473
       5  | 16:06.24 |    3:27.66   |       72474      |      88064
       6  | 19:34.15 |    3:59.63   |       88065      |     106052
       7  | 23:34.03 |    3:54.27   |      106053      |     123629
       8  | 27:28.30 |    3:47.56   |      123630      |     140710
       9  | 31:16.11 |    3:10.30   |      140711      |     154990
      10  | 34:26.41 |    4:44.40   |      154991      |     176330
Характеристики диапазона извлечения и сообщения об ошибках
Выбранный диапазон
     Имя файла E:\Torrents\John Blakeley, Jeff Larson - 2001 - Daytrips\John Blakeley, Jeff Larson - Daytrips.wav
     Пиковый уровень 100.0 %
     Скорость извлечения 8.2 X
     Качество диапазона 100.0 %
     CRC теста FB6D3F9F
     CRC копии FB6D3F9F
     Копирование... OK
Ошибок не произошло
Конец отчёта
==== Контрольная сумма отчёта CFE2978FDDCDA4510557CA63FB8C5247935DCCAB4794B42D934364C064363548 ====
John Blakeley - Acoustic/Electric Guitars, Mandolin, Mandola, Percussion, Produced
Jeff Larson - Lead/Harmony Vocals, Acoustic Guitars
Ron Nagle - Vibes
Bobby Strickland - Saxophone
Jeffrey Foskett - Harmony Vocals
Scott Mathews - Drums
Gary Kehoe - Percussion
Правила, инструкции, FAQ!!!
Торрент  Добавлен [26 мар 2019, 19:16] Скачать торрент Магнет ссылка
Скачать торрент
[ Размер 11.53 КБ / Просмотров 1 ]

Статус
Проверен 
 
Размер  273.59 МБ
Приватный: Нет (DHT включён)
.torrent скачан  0
 


     Отправить личное сообщение
   
Страница 1 из 1
Показать сообщения за:  Поле сортировки  
Начать новую тему Ответить на тему


Сейчас этот форум просматривают: нет зарегистрированных пользователей и гости: 0


Вы не можете начинать темы
Вы не можете отвечать на сообщения
Вы не можете редактировать свои сообщения
Вы не можете удалять свои сообщения
Вы не можете добавлять вложения

Перейти:  
cron