Начать новую тему Ответить на тему
Статистика раздачи
Размер: 252.32 МБ | Добавлен: 26 мар 2019, 20:54 | Скачали: 0
Сидеров: 0  [0 байт/сек]    Личеров: 0  [0 байт/сек]
Пред. тема | След. тема 

Автор
Сообщение

СообщениеДобавлено: 26 мар 2019, 20:54 

Ответить с цитатой 

Seals & Crofts - Diamond Girl
Жанр: Soft Rock
Год выпуска диска: 1973
Производитель диска: USA
Аудио кодек: FLAC
Тип рипа: tracks+.cue
Битрейт аудио: lossless
Продолжительность: 41:09
Трэклист:
1. "Diamond Girl" – 4:12
2. "Ruby Jean and Billie Lee" – 4:09
3. "Intone My Servant" – 3:04
4. "We May Never Pass This Way Again" – 4:17
5. "Nine Houses" – 7:00
6. "Standin' on a Mountain Top" (Seals) – 3:05
7. "'It's Gonna Come Down on You" – 4:40
8. "Jessica" – 2:56
9. "Dust on My Saddle" (Seals, Seals) – 3:16
10. "Wisdom" – 4:26
Доп. информация:
Код:
Exact Audio Copy V0.99 prebeta 5 from 4. May 2009
EAC extraction logfile from 29. August 2009, 20:11
Seals & Croft / Diamond Girl
Used drive  : ASUS    DRW-1814BLT   Adapter: 3  ID: 0
Read mode               : Secure
Utilize accurate stream : Yes
Defeat audio cache      : Yes
Make use of C2 pointers : No
Read offset correction                      : 6
Overread into Lead-In and Lead-Out          : No
Fill up missing offset samples with silence : Yes
Delete leading and trailing silent blocks   : No
Null samples used in CRC calculations       : No
Used interface                              : Native Win32 interface for Win NT & 2000
Gap handling                                : Appended to previous track
Used output format              : User Defined Encoder
Selected bitrate                : 768 kBit/s
Quality                         : High
Add ID3 tag                     : No
Command line compressor         : C:\Program Files\Exact Audio Copy\FLAC\FLAC.EXE
Additional command line options : -V -8 -T "artist=%a" -T "title=%t" -T "album=%g" -T "date=%y" -T "tracknumber=%n" -T "genre=%m" %s
TOC of the extracted CD
     Track |   Start  |  Length  | Start sector | End sector
    ---------------------------------------------------------
        1  |  0:00.00 |  4:12.03 |         0    |    18902
        2  |  4:12.03 |  4:09.68 |     18903    |    37645
        3  |  8:21.71 |  3:04.72 |     37646    |    51517
        4  | 11:26.68 |  4:17.14 |     51518    |    70806
        5  | 15:44.07 |  7:00.73 |     70807    |   102379
        6  | 22:45.05 |  3:05.56 |    102380    |   116310
        7  | 25:50.61 |  4:40.64 |    116311    |   137374
        8  | 30:31.50 |  2:56.03 |    137375    |   150577
        9  | 33:27.53 |  3:16.12 |    150578    |   165289
       10  | 36:43.65 |  4:26.02 |    165290    |   185241
Track  1
     Filename E:\Music Torrents\Seals & Croft - Diamond Girl 1973\01 - Diamond Girl.wav
     Pre-gap length  0:00:02.00
     Peak level 100.0 %
     Track quality 99.9 %
     Test CRC FF755DC4
     Copy CRC FF755DC4
     Copy OK
Track  2
     Filename E:\Music Torrents\Seals & Croft - Diamond Girl 1973\02 - Ruby Jean & Billie Lee.wav
     Peak level 99.9 %
     Track quality 100.0 %
     Test CRC 19202B44
     Copy CRC 19202B44
     Copy OK
Track  3
     Filename E:\Music Torrents\Seals & Croft - Diamond Girl 1973\03 - Intone My Servant.wav
     Peak level 99.9 %
     Track quality 99.9 %
     Test CRC 0983FF33
     Copy CRC 0983FF33
     Copy OK
Track  4
     Filename E:\Music Torrents\Seals & Croft - Diamond Girl 1973\04 - We May Never Pass This Way Again.wav
     Peak level 98.7 %
     Track quality 100.0 %
     Test CRC 69BD3A6D
     Copy CRC 69BD3A6D
     Copy OK
Track  5
     Filename E:\Music Torrents\Seals & Croft - Diamond Girl 1973\05 - Nine Houses.wav
     Peak level 99.0 %
     Track quality 100.0 %
     Test CRC C33EDB20
     Copy CRC C33EDB20
     Copy OK
Track  6
     Filename E:\Music Torrents\Seals & Croft - Diamond Girl 1973\06 - Standin' On a Mountain Top.wav
     Peak level 97.7 %
     Track quality 100.0 %
     Test CRC FA1C04E2
     Copy CRC FA1C04E2
     Copy OK
Track  7
     Filename E:\Music Torrents\Seals & Croft - Diamond Girl 1973\07 - It's Gonna Come Down.wav
     Peak level 100.0 %
     Track quality 100.0 %
     Test CRC 0B45BB3C
     Copy CRC 0B45BB3C
     Copy OK
Track  8
     Filename E:\Music Torrents\Seals & Croft - Diamond Girl 1973\08 - Jessica.wav
     Peak level 100.0 %
     Track quality 100.0 %
     Test CRC 1C6CD8C8
     Copy CRC 1C6CD8C8
     Copy OK
Track  9
     Filename E:\Music Torrents\Seals & Croft - Diamond Girl 1973\09 - Dust On My Saddle.wav
     Peak level 100.0 %
     Track quality 100.0 %
     Test CRC 329421D7
     Copy CRC 329421D7
     Copy OK
Track 10
     Filename E:\Music Torrents\Seals & Croft - Diamond Girl 1973\10 - Wisdom.wav
     Peak level 100.0 %
     Track quality 100.0 %
     Test CRC E31CF33E
     Copy CRC E31CF33E
     Copy OK
No errors occurred
End of status report
AUDIOCHECKER v2.0 beta (build 457) - by Dester - opdester@freemail.hu
~~~~~~~~~~~~~~~~~~~~~~~~~~~~~~~~~~
Начато: суббота, 29. 08. 2009. - 20:12.30
Найдено файлов: 10
01 -===- E:\Music Torrents\Seals & Croft - Diamond Girl 1973\01 - Diamond Girl.flac
Извлечение успешно выполнено
Заключение: этот трек - CDDA с вероятностью 100%
Временный файл удалён.
02 -===- E:\Music Torrents\Seals & Croft - Diamond Girl 1973\02 - Ruby Jean & Billie Lee.flac
Извлечение успешно выполнено
Заключение: этот трек - CDDA с вероятностью 100%
Временный файл удалён.
03 -===- E:\Music Torrents\Seals & Croft - Diamond Girl 1973\03 - Intone My Servant.flac
Извлечение успешно выполнено
Заключение: этот трек - CDDA с вероятностью 100%
Временный файл удалён.
04 -===- E:\Music Torrents\Seals & Croft - Diamond Girl 1973\04 - We May Never Pass This Way
Again.flac
Извлечение успешно выполнено
Заключение: этот трек - CDDA с вероятностью 100%
Временный файл удалён.
05 -===- E:\Music Torrents\Seals & Croft - Diamond Girl 1973\05 - Nine Houses.flac
Извлечение успешно выполнено
Заключение: этот трек - CDDA с вероятностью 100%
Временный файл удалён.
06 -===- E:\Music Torrents\Seals & Croft - Diamond Girl 1973\06 - Standin' On a Mountain Top.flac
Извлечение успешно выполнено
Заключение: этот трек - CDDA с вероятностью 100%
Временный файл удалён.
07 -===- E:\Music Torrents\Seals & Croft - Diamond Girl 1973\07 - It's Gonna Come Down.flac
Извлечение успешно выполнено
Заключение: этот трек - CDDA с вероятностью 100%
Временный файл удалён.
08 -===- E:\Music Torrents\Seals & Croft - Diamond Girl 1973\08 - Jessica.flac
Извлечение успешно выполнено
Заключение: этот трек - CDDA с вероятностью 100%
Временный файл удалён.
09 -===- E:\Music Torrents\Seals & Croft - Diamond Girl 1973\09 - Dust On My Saddle.flac
Извлечение успешно выполнено
Заключение: этот трек - CDDA с вероятностью 100%
Временный файл удалён.
10 -===- E:\Music Torrents\Seals & Croft - Diamond Girl 1973\10 - Wisdom.flac
Извлечение успешно выполнено
Заключение: этот трек - CDDA с вероятностью 100%
Временный файл удалён.
Завершено: суббота, 29. 08. 2009. - 20:17.09 (Время операции: 0:04.38)
Правила, инструкции, FAQ!!!
Торрент  Добавлен [26 мар 2019, 20:54] Скачать торрент Магнет ссылка
Скачать торрент
[ Размер 20.99 КБ / Просмотров 1 ]

Статус
Проверен 
 
Размер  252.32 МБ
Приватный: Нет (DHT включён)
.torrent скачан  0
 


     Отправить личное сообщение
   
Страница 1 из 1
Показать сообщения за:  Поле сортировки  
Начать новую тему Ответить на тему


Сейчас этот форум просматривают: нет зарегистрированных пользователей и гости: 0


Вы не можете начинать темы
Вы не можете отвечать на сообщения
Вы не можете редактировать свои сообщения
Вы не можете удалять свои сообщения
Вы не можете добавлять вложения

Перейти:  
cron