Начать новую тему Ответить на тему
Статистика раздачи
Размер: 238.82 МБ | Добавлен: 26 мар 2019, 21:05 | Скачали: 0
Сидеров: 0  [0 байт/сек]    Личеров: 0  [0 байт/сек]
Пред. тема | След. тема 

Автор
Сообщение

СообщениеДобавлено: 26 мар 2019, 21:05 

Ответить с цитатой 

Randy Newman / Land Of Dreams
Жанр: Soft rock, Roots rock
Носитель: CD
Страна-производитель диска: Germany
Год издания: 1988
Издатель (лейбл): Warner Bros. Reprise
Номер по каталогу: 7599-25773-2
Страна: USA
Аудиокодек: FLAC (*.flac)
Тип рипа: image+.cue
Битрейт аудио: lossless
Продолжительность: 00:40:14
Источник (релизер): Личный фирменный диск
Наличие сканов в содержимом раздачи: да
Треклист:
[01] Dixie Flyer [04:10]
[02] New Orleans Wins The War [03:27]
[03] Four Eyes [03:34]
[04] Falling In Love [03:00]
[05] Something Special [03:07]
[06] Bad News From Home [02:45]
[07] Roll With The Punches [03:29]
[08] Masterman And Baby J [03:27]
[09] Red Bandana [02:35]
[10] Follow The Flag [02:15]
[11] It's Money That Matters [04:04]
[12] I Want You To Hurt Like I Do [04:07]
Код:
Exact Audio Copy V1.0 beta 3 from 29. August 2011
EAC extraction logfile from 12. June 2014, 23:22
Randy Newman / Land of Dreams
Used drive  : ASUS    SDRW-08D1S-U   Adapter: 1  ID: 0
Read mode               : Secure
Utilize accurate stream : Yes
Defeat audio cache      : Yes
Make use of C2 pointers : No
Read offset correction                      : 667
Overread into Lead-In and Lead-Out          : No
Fill up missing offset samples with silence : Yes
Delete leading and trailing silent blocks   : No
Null samples used in CRC calculations       : Yes
Used interface                              : Native Win32 interface for Win NT & 2000
Used output format              : User Defined Encoder
Selected bitrate                : 128 kBit/s
Quality                         : High
Add ID3 tag                     : No
Command line compressor         : C:\Program Files (x86)\Exact Audio Copy\Flac\flac.exe
Additional command line options : -V -8 -T "Date=%year%" -T "Genre=%genre%" %source%
TOC of the extracted CD
     Track |   Start  |  Length  | Start sector | End sector
    ---------------------------------------------------------
        1  |  0:00.00 |  4:08.22 |         0    |    18621
        2  |  4:08.22 |  3:32.10 |     18622    |    34531
        3  |  7:40.32 |  3:38.25 |     34532    |    50906
        4  | 11:18.57 |  3:01.23 |     50907    |    64504
        5  | 14:20.05 |  3:07.12 |     64505    |    78541
        6  | 17:27.17 |  2:46.33 |     78542    |    91024
        7  | 20:13.50 |  3:27.00 |     91025    |   106549
        8  | 23:40.50 |  3:29.07 |    106550    |   122231
        9  | 27:09.57 |  2:36.28 |    122232    |   133959
       10  | 29:46.10 |  2:14.35 |    133960    |   144044
       11  | 32:00.45 |  4:07.67 |    144045    |   162636
       12  | 36:08.37 |  4:06.25 |    162637    |   181111
Range status and errors
Selected range
     Filename C:\Users\Олег\Downloads\Randy Newman - Land of Dreams.wav
     Peak level 95.4 %
     Extraction speed 3.7 X
     Range quality 100.0 %
     Test CRC D704CCB1
     Copy CRC D704CCB1
     Copy OK
No errors occurred
AccurateRip summary
Track  1  accurately ripped (confidence 10)  [812BC9D9]  (AR v2)
Track  2  accurately ripped (confidence 10)  [B4589B8C]  (AR v2)
Track  3  accurately ripped (confidence 10)  [B6F2EDCF]  (AR v2)
Track  4  accurately ripped (confidence 10)  [8D1B2CC0]  (AR v2)
Track  5  accurately ripped (confidence 10)  [73922ED8]  (AR v2)
Track  6  accurately ripped (confidence 10)  [2A1206E8]  (AR v2)
Track  7  accurately ripped (confidence 10)  [2750A6D8]  (AR v2)
Track  8  accurately ripped (confidence 10)  [D3245B70]  (AR v2)
Track  9  accurately ripped (confidence 10)  [4384A76E]  (AR v2)
Track 10  accurately ripped (confidence 10)  [2B0B1574]  (AR v2)
Track 11  accurately ripped (confidence 10)  [B828D200]  (AR v2)
Track 12  accurately ripped (confidence 10)  [D3397D57]  (AR v2)
All tracks accurately ripped
End of status report
==== Log checksum 565FEB4093F51EADCE3504350C791DFF7D586B9374820C931591DB2BD9A948A1 ====
Код:
REM GENRE Rock
REM DATE 1988
REM DISCID 8E096E0C
REM COMMENT "ExactAudioCopy v1.0b3"
PERFORMER "Randy Newman"
TITLE "Land of Dreams"
FILE "Randy Newman - Land of Dreams.flac" WAVE
  TRACK 01 AUDIO
    TITLE "Dixie Flyer"
    PERFORMER "Randy Newman"
    INDEX 01 00:00:00
  TRACK 02 AUDIO
    TITLE "New Orleans Wins the War"
    PERFORMER "Randy Newman"
    INDEX 01 04:08:22
  TRACK 03 AUDIO
    TITLE "Four Eyes"
    PERFORMER "Randy Newman"
    INDEX 00 07:37:70
    INDEX 01 07:40:32
  TRACK 04 AUDIO
    TITLE "Falling in Love"
    PERFORMER "Randy Newman"
    INDEX 00 11:16:65
    INDEX 01 11:18:57
  TRACK 05 AUDIO
    TITLE "Something Special"
    PERFORMER "Randy Newman"
    INDEX 00 14:17:65
    INDEX 01 14:20:05
  TRACK 06 AUDIO
    TITLE "Bad News from Home"
    PERFORMER "Randy Newman"
    INDEX 00 17:25:12
    INDEX 01 17:27:17
  TRACK 07 AUDIO
    TITLE "Roll with the Punches"
    PERFORMER "Randy Newman"
    INDEX 00 20:11:62
    INDEX 01 20:13:50
  TRACK 08 AUDIO
    TITLE "Masterman and Baby J."
    PERFORMER "Randy Newman"
    INDEX 00 23:39:45
    INDEX 01 23:40:50
  TRACK 09 AUDIO
    TITLE "Red Bandana"
    PERFORMER "Randy Newman"
    INDEX 00 27:07:05
    INDEX 01 27:09:57
  TRACK 10 AUDIO
    TITLE "Follow the Flag"
    PERFORMER "Randy Newman"
    INDEX 00 29:44:12
    INDEX 01 29:46:10
  TRACK 11 AUDIO
    TITLE "It's Money that Matters"
    PERFORMER "Randy Newman"
    INDEX 00 31:58:57
    INDEX 01 32:00:45
  TRACK 12 AUDIO
    TITLE "I Want You to Hurt Like I do"
    PERFORMER "Randy Newman"
    INDEX 00 36:07:17
    INDEX 01 36:08:37
Правила, инструкции, FAQ!!!
Торрент  Добавлен [26 мар 2019, 21:05] Скачать торрент Магнет ссылка
Скачать торрент
[ Размер 19.63 КБ / Просмотров 4 ]

Статус
Проверен 
 
Размер  238.82 МБ
Приватный: Нет (DHT включён)
.torrent скачан  0
 


     Отправить личное сообщение
   
Страница 1 из 1
Показать сообщения за:  Поле сортировки  
Начать новую тему Ответить на тему


Сейчас этот форум просматривают: нет зарегистрированных пользователей и гости: 0


Вы не можете начинать темы
Вы не можете отвечать на сообщения
Вы не можете редактировать свои сообщения
Вы не можете удалять свои сообщения
Вы не можете добавлять вложения

Перейти:  
cron