Начать новую тему Ответить на тему
Статистика раздачи
Размер: 363.99 МБ | Добавлен: 26 мар 2019, 19:52 | Скачали: 0
Сидеров: 0  [0 байт/сек]    Личеров: 0  [0 байт/сек]
Пред. тема | След. тема 

Автор
Сообщение

СообщениеДобавлено: 26 мар 2019, 19:52 

Ответить с цитатой 

Robin Adler & Mutts of the Planet - Safaris to the Heart: The Songs of Joni Mitchell
Жанр: Soft-Rock
Год выпуска диска: 2010
Производитель диска: USA
Аудио кодек: FLAC
Тип рипа: image+.cue
Битрейт аудио: lossless
Продолжительность: 61:00
Трэклист:
01. Rainy Night House (5:07)
02. Cherokee Louise (4:52)
03. Woodstock (8:35)
04. Amelia (6:23)
05. The Jungle Line (5:52)
06. Both Sides Now (5:56)
07. Night Ride Home (4:36)
08. Help Me (3:44)
09. Passion Play (5:24)
10. Dreamland (10:31)
Доп. информация: Диск куплен напрямую у автора. Сканы внутри.
Код:
Exact Audio Copy V0.99 prebeta 5 from 4. May 2009
EAC extraction logfile from 24. June 2010, 20:00
Robin Adler & Mutts of the Planet / Safaris to the Heart: The Songs of Joni Mitchell
Used drive  : Optiarc DVD RW AD-7200S   Adapter: 2  ID: 0
Read mode               : Secure
Utilize accurate stream : Yes
Defeat audio cache      : Yes
Make use of C2 pointers : No
Read offset correction                      : 48
Overread into Lead-In and Lead-Out          : No
Fill up missing offset samples with silence : Yes
Delete leading and trailing silent blocks   : No
Null samples used in CRC calculations       : Yes
Used interface                              : Native Win32 interface for Win NT & 2000
Used output format              : User Defined Encoder
Selected bitrate                : 1024 kBit/s
Quality                         : High
Add ID3 tag                     : No
Command line compressor         : C:\Program Files\Exact Audio Copy\Flac\flac.exe
Additional command line options : -8 -V %s
TOC of the extracted CD
     Track |   Start  |  Length  | Start sector | End sector
    ---------------------------------------------------------
        1  |  0:00.00 |  5:07.18 |         0    |    23042
        2  |  5:07.18 |  4:52.60 |     23043    |    45002
        3  | 10:00.03 |  8:35.36 |     45003    |    83663
        4  | 18:35.39 |  6:23.14 |     83664    |   112402
        5  | 24:58.53 |  5:52.48 |    112403    |   138850
        6  | 30:51.26 |  5:56.44 |    138851    |   165594
        7  | 36:47.70 |  4:36.42 |    165595    |   186336
        8  | 41:24.37 |  3:44.01 |    186337    |   203137
        9  | 45:08.38 |  5:24.70 |    203138    |   227507
       10  | 50:33.33 | 10:31.19 |    227508    |   274851
Range status and errors
Selected range
     Filename C:\Documents and Settings\vad\My Documents\My Music\AAA\Robin Adler & Mutts of the Planet - Safaris to the Heart  The Songs of Joni Mitchell.wav
     Peak level 98.1 %
     Range quality 100.0 %
     Copy CRC 53138429
     Copy OK
No errors occurred
AccurateRip summary
Track  1  not present in database
Track  2  not present in database
Track  3  not present in database
Track  4  not present in database
Track  5  not present in database
Track  6  not present in database
Track  7  not present in database
Track  8  not present in database
Track  9  not present in database
Track 10  not present in database
None of the tracks are present in the AccurateRip database
End of status report
Правила, инструкции, FAQ!!!
Торрент  Добавлен [26 мар 2019, 19:52] Скачать торрент Магнет ссылка
Скачать торрент
[ Размер 15.24 КБ / Просмотров 1 ]

Статус
Проверен 
 
Размер  363.99 МБ
Приватный: Нет (DHT включён)
.torrent скачан  0
 


     Отправить личное сообщение
   
Страница 1 из 1
Показать сообщения за:  Поле сортировки  
Начать новую тему Ответить на тему


Сейчас этот форум просматривают: нет зарегистрированных пользователей и гости: 0


Вы не можете начинать темы
Вы не можете отвечать на сообщения
Вы не можете редактировать свои сообщения
Вы не можете удалять свои сообщения
Вы не можете добавлять вложения

Перейти:  
cron