Начать новую тему Ответить на тему
Статистика раздачи
Размер: 263.51 МБ | Добавлен: 26 мар 2019, 20:06 | Скачали: 0
Сидеров: 0  [0 байт/сек]    Личеров: 0  [0 байт/сек]
Пред. тема | След. тема 

Автор
Сообщение

СообщениеДобавлено: 26 мар 2019, 20:06 

Ответить с цитатой 

Paul Parrish - The Forest Of My Mind
Жанр: Soft Rock, Psychedelic Rock
Страна-производитель диска: UK
Год издания диска: 2014
Издатель (лейбл): Now Sounds
Номер по каталогу: CRNOW 50
Страна: USA
Аудиокодек: FLAC (*.flac)
Тип рипа: tracks+.cue
Битрейт аудио: lossless
Продолжительность: 00:40:42
Источник (релизер): Liesabath
Наличие сканов в содержимом раздачи:
Треклист:
01. English Sparrows 02:44
02. Suzanne 02:57
03. Walking In The Forest (Of My Mind) 02:46
04. The Painter (Who Lives In The Cellar) 02:22
05. Dialogue Of Wind And Lover 03:18
06. You've Got To Hide Your Love Away 03:00
07. Tiny Alice 03:13
08. Morning Train 02:41
09. Something Of A Love Song 02:16
10. The White Birds (Return To Warm Seas) 03:10
11. Flowers In The Park 03:47
12. I Can't Help Myself 02:34
Bonus Tracks (Mono):
13. Walking In The Forest (Of My Mind) 02:47
14. The White Birds (Return To Warm Seas) 03:07
Код:
Exact Audio Copy V1.0 beta 3 from 29. August 2011
EAC extraction logfile from 24. November 2014, 11:51
Paul Parrish / The Forest Of My Mind
Used drive  : HL-DT-STDVDRAM GH24NSB0   Adapter: 0  ID: 0
Read mode               : Secure
Utilize accurate stream : Yes
Defeat audio cache      : Yes
Make use of C2 pointers : No
Read offset correction                      : 6
Overread into Lead-In and Lead-Out          : No
Fill up missing offset samples with silence : Yes
Delete leading and trailing silent blocks   : No
Null samples used in CRC calculations       : Yes
Used interface                              : Native Win32 interface for Win NT & 2000
Gap handling                                : Appended to previous track
Used output format              : User Defined Encoder
Selected bitrate                : 128 kBit/s
Quality                         : High
Add ID3 tag                     : No
Command line compressor         : C:\Program Files (x86)\Exact Audio Copy\Flac\flac.exe
Additional command line options : -8 -V -T "ARTIST=%artist%" -T "TITLE=%title%" -T "ALBUM=%albumtitle%" -T "DATE=%year%" -T "TRACKNUMBER=%tracknr%" -T "TOTALTRACKS=%numtracks%" -T "GENRE=%genre%" -T "ALBUMARTIST=%albumartist%" -T "ALBUM ARTIST=%albumartist%" -T "COMMENT=EAC Secure Mode, Test & Copy, AccurateRip, FLAC -8" %source%
TOC of the extracted CD
     Track |   Start  |  Length  | Start sector | End sector
    ---------------------------------------------------------
        1  |  0:00.00 |  2:44.29 |         0    |    12328
        2  |  2:44.29 |  2:56.74 |     12329    |    25602
        3  |  5:41.28 |  2:46.36 |     25603    |    38088
        4  |  8:27.64 |  2:21.70 |     38089    |    48733
        5  | 10:49.59 |  3:17.65 |     48734    |    63573
        6  | 14:07.49 |  3:00.15 |     63574    |    77088
        7  | 17:07.64 |  3:13.37 |     77089    |    91600
        8  | 20:21.26 |  2:41.01 |     91601    |   103676
        9  | 23:02.27 |  2:16.30 |    103677    |   113906
       10  | 25:18.57 |  3:09.69 |    113907    |   128150
       11  | 28:28.51 |  3:47.16 |    128151    |   145191
       12  | 32:15.67 |  2:34.35 |    145192    |   156776
       13  | 34:50.27 |  2:47.20 |    156777    |   169321
       14  | 37:37.47 |  3:06.39 |    169322    |   183310
Track  1
     Filename D:\New Rips\Paul Parrish - The Forest Of My Mind (1968) [FLAC] {Reissue 2014}\01 - English Sparrows.wav
     Pre-gap length  0:00:02.00
     Peak level 96.6 %
     Extraction speed 0.9 X
     Track quality 100.0 %
     Test CRC 4F25E796
     Copy CRC 4F25E796
     Accurately ripped (confidence 2)  [8414432C]  (AR v2)
     Copy OK
Track  2
     Filename D:\New Rips\Paul Parrish - The Forest Of My Mind (1968) [FLAC] {Reissue 2014}\02 - Suzanne.wav
     Pre-gap length  0:00:01.38
     Peak level 90.1 %
     Extraction speed 1.0 X
     Track quality 100.0 %
     Test CRC ED1BC719
     Copy CRC ED1BC719
     Accurately ripped (confidence 2)  [20BCA519]  (AR v2)
     Copy OK
Track  3
     Filename D:\New Rips\Paul Parrish - The Forest Of My Mind (1968) [FLAC] {Reissue 2014}\03 - Walking In The Forest (Of My Mind).wav
     Pre-gap length  0:00:02.00
     Peak level 96.6 %
     Extraction speed 1.1 X
     Track quality 100.0 %
     Test CRC 9B6FC5BA
     Copy CRC 9B6FC5BA
     Accurately ripped (confidence 2)  [70AD4459]  (AR v2)
     Copy OK
Track  4
     Filename D:\New Rips\Paul Parrish - The Forest Of My Mind (1968) [FLAC] {Reissue 2014}\04 - The Painter (Who Lives In The Cellar).wav
     Pre-gap length  0:00:02.00
     Peak level 96.6 %
     Extraction speed 1.1 X
     Track quality 100.0 %
     Test CRC 01303648
     Copy CRC 01303648
     Accurately ripped (confidence 2)  [6E71FC2E]  (AR v2)
     Copy OK
Track  5
     Filename D:\New Rips\Paul Parrish - The Forest Of My Mind (1968) [FLAC] {Reissue 2014}\05 - Dialogue Of Wind And Lover.wav
     Pre-gap length  0:00:02.00
     Peak level 96.6 %
     Extraction speed 1.1 X
     Track quality 99.9 %
     Test CRC 5859FEB4
     Copy CRC 5859FEB4
     Accurately ripped (confidence 2)  [535F9DCC]  (AR v2)
     Copy OK
Track  6
     Filename D:\New Rips\Paul Parrish - The Forest Of My Mind (1968) [FLAC] {Reissue 2014}\06 - You've Got To Hide Your Love Away.wav
     Pre-gap length  0:00:01.38
     Peak level 96.6 %
     Extraction speed 1.3 X
     Track quality 100.0 %
     Test CRC 1B2D0DE8
     Copy CRC 1B2D0DE8
     Accurately ripped (confidence 2)  [EBC41089]  (AR v2)
     Copy OK
Track  7
     Filename D:\New Rips\Paul Parrish - The Forest Of My Mind (1968) [FLAC] {Reissue 2014}\07 - Tiny Alice.wav
     Pre-gap length  0:00:02.00
     Peak level 96.6 %
     Extraction speed 1.4 X
     Track quality 100.0 %
     Test CRC FF574752
     Copy CRC FF574752
     Accurately ripped (confidence 2)  [CF0E11D6]  (AR v2)
     Copy OK
Track  8
     Filename D:\New Rips\Paul Parrish - The Forest Of My Mind (1968) [FLAC] {Reissue 2014}\08 - Morning Train.wav
     Pre-gap length  0:00:01.50
     Peak level 96.6 %
     Extraction speed 1.2 X
     Track quality 99.9 %
     Test CRC CF493CB1
     Copy CRC CF493CB1
     Accurately ripped (confidence 2)  [699F7CC1]  (AR v2)
     Copy OK
Track  9
     Filename D:\New Rips\Paul Parrish - The Forest Of My Mind (1968) [FLAC] {Reissue 2014}\09 - Something Of A Love Song.wav
     Pre-gap length  0:00:01.50
     Peak level 96.6 %
     Extraction speed 1.4 X
     Track quality 100.0 %
     Test CRC 7682C0D0
     Copy CRC 7682C0D0
     Accurately ripped (confidence 2)  [A4DE291A]  (AR v2)
     Copy OK
Track 10
     Filename D:\New Rips\Paul Parrish - The Forest Of My Mind (1968) [FLAC] {Reissue 2014}\10 - The White Birds (Return To Warm Seas).wav
     Pre-gap length  0:00:02.00
     Peak level 96.6 %
     Extraction speed 1.3 X
     Track quality 99.9 %
     Test CRC 3AA9A6DE
     Copy CRC 3AA9A6DE
     Accurately ripped (confidence 2)  [C0C09238]  (AR v2)
     Copy OK
Track 11
     Filename D:\New Rips\Paul Parrish - The Forest Of My Mind (1968) [FLAC] {Reissue 2014}\11 - Flowers In The Park.wav
     Pre-gap length  0:00:01.50
     Peak level 96.6 %
     Extraction speed 1.7 X
     Track quality 100.0 %
     Test CRC 619FAFBB
     Copy CRC 619FAFBB
     Accurately ripped (confidence 2)  [2A7732E2]  (AR v2)
     Copy OK
Track 12
     Filename D:\New Rips\Paul Parrish - The Forest Of My Mind (1968) [FLAC] {Reissue 2014}\12 - I Can't Help Myself.wav
     Pre-gap length  0:00:02.19
     Peak level 96.6 %
     Extraction speed 1.6 X
     Track quality 100.0 %
     Test CRC 4E95BA88
     Copy CRC 4E95BA88
     Accurately ripped (confidence 2)  [E1598E5C]  (AR v2)
     Copy OK
Track 13
     Filename D:\New Rips\Paul Parrish - The Forest Of My Mind (1968) [FLAC] {Reissue 2014}\13 - Walking In The Forest (Of My Mind) - Mono.wav
     Pre-gap length  0:00:02.00
     Peak level 96.6 %
     Extraction speed 1.7 X
     Track quality 100.0 %
     Test CRC 7D700965
     Copy CRC 7D700965
     Accurately ripped (confidence 2)  [22FDA825]  (AR v2)
     Copy OK
Track 14
     Filename D:\New Rips\Paul Parrish - The Forest Of My Mind (1968) [FLAC] {Reissue 2014}\14 - The White Birds (Return To Warm Seas) - Mono.wav
     Pre-gap length  0:00:02.00
     Peak level 86.7 %
     Extraction speed 1.8 X
     Track quality 100.0 %
     Test CRC C8F4D9F2
     Copy CRC C8F4D9F2
     Accurately ripped (confidence 2)  [2F8FBA78]  (AR v2)
     Copy OK
All tracks accurately ripped
No errors occurred
End of status report
==== Log checksum 4A4D02B808BE0736FCCAC9EF2A58C7BB224537A16A324BEAF522563DC2476A86 ====
Код:
REM DATE 1968
REM DISCID B0098C0E
REM COMMENT "ExactAudioCopy v1.0b3"
PERFORMER "Paul Parrish"
TITLE "The Forest Of My Mind"
FILE "01 - English Sparrows.wav" WAVE
  TRACK 01 AUDIO
    TITLE "English Sparrows"
    PERFORMER "Paul Parrish"
    INDEX 01 00:00:00
  TRACK 02 AUDIO
    TITLE "Suzanne"
    PERFORMER "Paul Parrish"
    INDEX 00 02:42:66
FILE "02 - Suzanne.wav" WAVE
    INDEX 01 00:00:00
  TRACK 03 AUDIO
    TITLE "Walking In The Forest (Of My Mind)"
    PERFORMER "Paul Parrish"
    INDEX 00 02:54:74
FILE "03 - Walking In The Forest (Of My Mind).wav" WAVE
    INDEX 01 00:00:00
  TRACK 04 AUDIO
    TITLE "The Painter (Who Lives In The Cellar)"
    PERFORMER "Paul Parrish"
    INDEX 00 02:44:36
FILE "04 - The Painter (Who Lives In The Cellar).wav" WAVE
    INDEX 01 00:00:00
  TRACK 05 AUDIO
    TITLE "Dialogue Of Wind And Lover"
    PERFORMER "Paul Parrish"
    INDEX 00 02:19:70
FILE "05 - Dialogue Of Wind And Lover.wav" WAVE
    INDEX 01 00:00:00
  TRACK 06 AUDIO
    TITLE "You've Got To Hide Your Love Away"
    PERFORMER "Paul Parrish"
    INDEX 00 03:16:27
FILE "06 - You've Got To Hide Your Love Away.wav" WAVE
    INDEX 01 00:00:00
  TRACK 07 AUDIO
    TITLE "Tiny Alice"
    PERFORMER "Paul Parrish"
    INDEX 00 02:58:15
FILE "07 - Tiny Alice.wav" WAVE
    INDEX 01 00:00:00
  TRACK 08 AUDIO
    TITLE "Morning Train"
    PERFORMER "Paul Parrish"
    INDEX 00 03:11:62
FILE "08 - Morning Train.wav" WAVE
    INDEX 01 00:00:00
  TRACK 09 AUDIO
    TITLE "Something Of A Love Song"
    PERFORMER "Paul Parrish"
    INDEX 00 02:39:26
FILE "09 - Something Of A Love Song.wav" WAVE
    INDEX 01 00:00:00
  TRACK 10 AUDIO
    TITLE "The White Birds (Return To Warm Seas)"
    PERFORMER "Paul Parrish"
    INDEX 00 02:14:30
FILE "10 - The White Birds (Return To Warm Seas).wav" WAVE
    INDEX 01 00:00:00
  TRACK 11 AUDIO
    TITLE "Flowers In The Park"
    PERFORMER "Paul Parrish"
    INDEX 00 03:08:19
FILE "11 - Flowers In The Park.wav" WAVE
    INDEX 01 00:00:00
  TRACK 12 AUDIO
    TITLE "I Can't Help Myself"
    PERFORMER "Paul Parrish"
    INDEX 00 03:44:72
FILE "12 - I Can't Help Myself.wav" WAVE
    INDEX 01 00:00:00
  TRACK 13 AUDIO
    TITLE "Walking In The Forest (Of My Mind) - Mono"
    PERFORMER "Paul Parrish"
    INDEX 00 02:32:35
FILE "13 - Walking In The Forest (Of My Mind) - Mono.wav" WAVE
    INDEX 01 00:00:00
  TRACK 14 AUDIO
    TITLE "The White Birds (Return To Warm Seas) - Mono"
    PERFORMER "Paul Parrish"
    INDEX 00 02:45:20
FILE "14 - The White Birds (Return To Warm Seas) - Mono.wav" WAVE
    INDEX 01 00:00:00
Код:
-----------------------
DON'T MODIFY THIS FILE
-----------------------
PERFORMER: auCDtect Task Manager, ver. 1.5.1RC4 build 1.5.1.5
Copyright (c) 2008-2010 y-soft. All rights reserved
[url=http://y-soft.org]http://y-soft.org[/url]
ANALYZER: auCDtect: CD records authenticity detector, version 0.8.2
Copyright (c) 2004 Oleg Berngardt. All rights reserved.
Copyright (c) 2004 Alexander Djourik. All rights reserved.
FILE: 14 - The White Birds (Return To Warm Seas) - Mono.flac
  Size: 14130715 Hash: A0021E325BB447C88ACBE1FB7FAD56B3 Accuracy: -m0
  Conclusion: CDDA 100%
  Signature: 474CBF91D23C9BCC1025848BC2BBF5936BB43486
FILE: 13 - Walking In The Forest (Of My Mind) - Mono.flac
  Size: 13085445 Hash: 2C1DA46A50C88873B9F1B90EEE68BFEE Accuracy: -m0
  Conclusion: CDDA 100%
  Signature: 8727CEA1631FE424BAF07AF40A2E9A910CC693D8
FILE: 12 - I Can't Help Myself.flac
  Size: 17022510 Hash: E990F61BDE0FF75AC24C82288AEF0606 Accuracy: -m0
  Conclusion: CDDA 100%
  Signature: C2629E8FAA4649A9E698E11B0F6AA91A764CEA14
FILE: 11 - Flowers In The Park.flac
  Size: 22820476 Hash: 395BFF7A818F1666A78134FF16048EAC Accuracy: -m0
  Conclusion: CDDA 100%
  Signature: 8C25509E80112EA3DDE41ACE0B12C9CA717379D8
FILE: 10 - The White Birds (Return To Warm Seas).flac
  Size: 20732994 Hash: 01C0A7FA74D78C0B98F8352C65098F4A Accuracy: -m0
  Conclusion: CDDA 99%
  Signature: A3F97D4D57CD7060ABDACBAB530DB89CC73985C8
FILE: 09 - Something Of A Love Song.flac
  Size: 13821294 Hash: B0AE907BCF9C581A8FE1628245597763 Accuracy: -m0
  Conclusion: CDDA 100%
  Signature: D5CF91676BC9D26B831E7552A490DB10A01912B1
FILE: 08 - Morning Train.flac
  Size: 16051636 Hash: 1FA65BDFAF7D0E8BA9535FE5D62E044C Accuracy: -m0
  Conclusion: CDDA 100%
  Signature: A7CE871FBECCBABA3BC04ED5B7858469102C45EE
FILE: 07 - Tiny Alice.flac
  Size: 21058786 Hash: 47C1E8338976A8F9C9595B565862CBE8 Accuracy: -m0
  Conclusion: CDDA 100%
  Signature: 38256731F89F0CC11512B9C87AC0C4CC96BBFE8B
FILE: 06 - You've Got To Hide Your Love Away.flac
  Size: 18839482 Hash: 7C38E5C0C67D0D178465FE3896262223 Accuracy: -m0
  Conclusion: CDDA 99%
  Signature: 68926C520F23898D66FA77C0318DD5ECAE9A983C
FILE: 05 - Dialogue Of Wind And Lover.flac
  Size: 19866068 Hash: 3C517D8384A1EEEA0DDAEA3B95C2D00C Accuracy: -m0
  Conclusion: CDDA 99%
  Signature: 2F0ADB90469FF791A434077ECC292F0233013D32
FILE: 04 - The Painter (Who Lives In The Cellar).flac
  Size: 15702580 Hash: CDE17462FAD3322734CD924D7DD9ACE8 Accuracy: -m0
  Conclusion: CDDA 100%
  Signature: 00F27D9D963BB965F2A733F19E314AEF5E953F63
FILE: 03 - Walking In The Forest (Of My Mind).flac
  Size: 19194606 Hash: D0C72D1FA48EFEEAB53C33A3849BC7F7 Accuracy: -m0
  Conclusion: CDDA 100%
  Signature: 3A83896E10A8C9F6D1C61F6405A5598ADBC1A961
FILE: 02 - Suzanne.flac
  Size: 18008726 Hash: 129CE52C1A2F6B3AFC7BE215408503F4 Accuracy: -m0
  Conclusion: CDDA 100%
  Signature: 51275B5C49C455FBACDCB5DD11BE91BFF8B89454
FILE: 01 - English Sparrows.flac
  Size: 17462072 Hash: AE6856904FF9FF5146C9ECD59BE952F8 Accuracy: -m0
  Conclusion: CDDA 100%
  Signature: BF7E44247E7A9204D05E88204AB57D2D182EB7F6
Код:
[CUETools log; Date: 16.11.2015 17:10:28; Version: 2.1.4]
[CTDB TOCID: Qz_h.8yPKEsu283TDlW20l5mVYE-] disk not present in database.
[AccurateRip ID: 0014b62c-00ddc48b-b0098c0e] found.
Track   [  CRC   |   V2   ] Status
 01     [e99fc3af|8414432c] (0+3/3) Accurately ripped
 02     [a7706e6e|20bca519] (0+3/3) Accurately ripped
 03     [3832bec3|70ad4459] (0+3/3) Accurately ripped
 04     [5930736c|6e71fc2e] (0+3/3) Accurately ripped
 05     [7ea847f9|535f9dcc] (0+3/3) Accurately ripped
 06     [dbbfa1e9|ebc41089] (0+3/3) Accurately ripped
 07     [bf5031a2|cf0e11d6] (0+3/3) Accurately ripped
 08     [bc377dd2|699f7cc1] (0+3/3) Accurately ripped
 09     [2b536345|a4de291a] (0+3/3) Accurately ripped
 10     [52c90711|c0c09238] (0+3/3) Accurately ripped
 11     [359330be|2a7732e2] (0+3/3) Accurately ripped
 12     [009ce0ef|e1598e5c] (0+3/3) Accurately ripped
 13     [0880965a|22fda825] (0+3/3) Accurately ripped
 14     [742970c4|2f8fba78] (0+3/3) Accurately ripped
Track Peak [ CRC32  ] [W/O NULL] [  LOG   ]
 --   96,6 [D6C67B02] [959A1CE3]
 01   96,6 [4F25E796] [7D528170]   CRC32
 02   90,1 [ED1BC719] [51BCB98B]   CRC32
 03   96,6 [9B6FC5BA] [C8C7F5FF]   CRC32
 04   96,6 [01303648] [331F0E2B]   CRC32
 05   96,6 [5859FEB4] [FE89E273]   CRC32
 06   96,6 [1B2D0DE8] [0FA23213]   CRC32
 07   96,6 [FF574752] [DCC2DC0B]   CRC32
 08   96,6 [CF493CB1] [511A5CC6]   CRC32
 09   96,6 [7682C0D0] [A26736A1]   CRC32
 10   96,6 [3AA9A6DE] [7BCA6BBD]   CRC32
 11   96,6 [619FAFBB] [1E781816]   CRC32
 12   96,6 [4E95BA88] [7AD023E1]   CRC32
 13   96,6 [7D700965] [8D16E172]   CRC32
 14   86,7 [C8F4D9F2] [45187234]   CRC32
Доп. информация
Paul Parrish - американский певец, автор песен и пианист. С Lorenzo Toppano, Пэрриш был участником дуэта Parrish & Toppano. Они записали два альбома. Его песни исполняли Helen Reddy, Kenny Rogers, The Dillards, Robin Dransfield, и др. В 1970 году Пэрриш написал песню A Poem I Wrote for Your Hair к фильму "Fools" в главной роли Jason Robards и Katharine Ross.
https://en.wikipedia.org/wiki/Paul_Parrish
https://href.li/?http://www.discogs.com/artist/91964-Paul-Parrish
Правила, инструкции, FAQ!!!
Торрент  Добавлен [26 мар 2019, 20:06] Скачать торрент Магнет ссылка
Скачать торрент
[ Размер 12.59 КБ / Просмотров 1 ]

Статус
Проверен 
 
Размер  263.51 МБ
Приватный: Нет (DHT включён)
.torrent скачан  0
 


     Отправить личное сообщение
   
Страница 1 из 1
Показать сообщения за:  Поле сортировки  
Начать новую тему Ответить на тему


Сейчас этот форум просматривают: нет зарегистрированных пользователей и гости: 0


Вы не можете начинать темы
Вы не можете отвечать на сообщения
Вы не можете редактировать свои сообщения
Вы не можете удалять свои сообщения
Вы не можете добавлять вложения

Перейти:  
cron