Начать новую тему Ответить на тему
Статистика раздачи
Размер: 5.14 ГБ | Добавлен: 27 июн 2020, 19:10 | Скачали: 0
Сидеров: 0  [0 байт/сек]    Личеров: 0  [0 байт/сек]
Пред. тема | След. тема 

Автор
Сообщение

СообщениеДобавлено: 27 июн 2020, 19:10 

Ответить с цитатой 





Shem-Tov Levi (Shem-Tov Levy), Feat. Avi Lebovich Orchestra, Sheshet - Collection - 14 альбомов - 1976-2016

Очень трудно категоризировать этого певца (своих песен), флейтиста, пианиста и композитора, стоявшего когда то у истоков как израильского прогрессива, так и рока в целом. Он и сегодня не останавливается, и сегодня так же трудно определить, к какому жанру отнести его альбомы. Единственное, что повторяется от альбома к альбому и от года к году - необычайная мелодичность и талант композитора и арранжировщика
Страна исполнителя: Israel
Жанр: x || Аудио кодек: FLAC || Тип рипа: (tracks + .cue) || Битрейт аудио: lossless || Включает: Full artwork || Общая длительность: 13:09:20 || Источник : Моя коллекция, мой рип
1973 - Arik Einstein, Shemi Levy - Old & Good Erez Israel (ארץ ישראל הישנה והטובה)
1974 - Ktzat Acheret - Nonames (קצת אחרת)
1976 - Arik Einstein, Shemi Levy - Children (ילדים)
1976 - Shem-Tov Levy - In The Mood (מצב רוח)
1977 - Shem Tov Levi & Sheshet Group - The Stretcher March ‎(מסע האלונקות)
1977 - Shem Tov Levi & Sheshet Group - Sheshet (ששת)
1979 - Tuned Tone - Tuned Tone (צליל מכוון)
1981 - Shem-Tov Levi - Waking Up (התעוררות)
1982 - Lehakat Eretz Shemesh - Songs Between East And West (שירים בין מזרח למערב)
1983 - Shlomo Gronich, Shem-Tov Levi - Family Album (אלבום משפחתי)
1984 - Arik Einstein, Shem-Tov Levi - Time Out (פסק זמן)
1984 - Shem Tov Levy - The Golden Peacock (טווס הזהב)
1985 - Arik Einstein, Shem-Tov Levi - Made in Israel (תוצרת הארץ)
1986 - Shem-Tov Levi - Neimot Moledet (נעימות מולדת)
1988 - Shem-Tov Levi - Bribe (שוחד)
1995 - Arik Einstein, Shem Tov Levi - Filled With Love (יש בי אהבה)
1995 - Shem-Tov Levi - Path To The Soul (בשביל הנשמה)
1995 - Shem-Tov Levi - Music From Films (מוסיקה מהסרטים)
1996 - Arik Einstein, Shem-Tov Levi - A Bit Of The Past (קצת לקחת חזרה)
1997 - Arik Einstein, Shem-Tov Levi - Where Have The Butterflies Gone (לאן פרחו הפרפרים)
1999 - Shem-Tov Levi - 99
2001 - Shem-Tov Levi - Circle Of Dreams (כיכר החלומות)
2003 - Shem-Tov Levi - Provence United (בית"ר פרובנס)
2006 - Shem-Tov Levi with Guests - If You Come: The Womens Sings The Songs Of Shem-Tov Levi
2007 - Shem-Tov Levy Ensemble - Stations (תחנות רוח)
2010 - Shem-Tov Levy Ensemble - Ben Adama (בן אדמה)
2011 - Sanhedrin - Ever After
2015 - Shem-Tov Levy & Avi Lebovich Orchestra - Good Company (בחברה טובה)
2016 - Shem-Tov Levy Ensemble - There it is (שם יש)
разыскивается
Kzat Aheret (Nonames) (Ktzat Acheret) - s/t - 1973, FLAC (tracks+.cue), lossless
разыскивается
В этой коллекции
Бонус диск в альбоме Шешет
В этой коллекции
Tuned Tone - Tuned Tone - 1979 (1991 Hed-Arzi), FLAC (tracks+.cue), lossless
В этой коллекции
A Land Of Sunshine - Songs Between East And West - 1982 (1995), MP3, 320 kbps
Shlomo Gronich and Shem-Tov Levi - The Family Album - 1983 (1993), FLAC (tracks+.cue), lossless
Arik Einstein - Collection - 17 альбомов - 1970-1996, FLAC (tracks+.cue), lossless
Shem-Tov Levi - The Golden Peacock - 1984 (1994 Hed Arzi), MP3, 320 kbps
Arik Einstein - Collection - 17 альбомов - 1970-1996, FLAC (tracks+.cue), lossless
В этой коллекции
В этой коллекции
Arik Einstein - Collection - 17 альбомов - 1970-1996, FLAC (tracks+.cue), lossless
В этой коллекции
В этой коллекции
Arik Einstein - Collection - 17 альбомов - 1970-1996, FLAC (tracks+.cue), lossless
Arik Einstein - Collection - 17 альбомов - 1970-1996, FLAC (tracks+.cue), lossless
В этой коллекции
В этой коллекции
разыскивается
разыскивается
В этой коллекции
В этой коллекции
Sanhedrin - Ever After - 2011, FLAC (tracks+.cue), lossless
В этой коллекции
В этой коллекции[/spoiler]Compilations2012 - Shem-Tov Levi - The Best Of Shem Tov Levy (המיטב)
Unknown year - Shem-Tov Levi - Selected Songs (שירים נבחרים)[/spoiler]В этой коллекции
разыскивается[/spoiler][/spoiler]

Жанр: Progressive, Ethnic, Soft Rock
Носитель: CD
Год издания: 1975
Год переиздания: 2008
Издатель (лейбл): Phonokol
Номер по каталогу: 4257-2
Трэклист:
1. שירי סוף הדרך - Songs For The Road
2. שיר - Song
3. Sadness Of The Night
4. יצאתי לטיל ברחוב - Walking In The Street
5. יום הולדת - Birthday
6. קטע נעים - Pleasant Enterlude
7. אחרי שהלכת מכאן - After You've Gone
8. ‏אדג’יו (סונטה מס’ ‏7)‏ - Adagio (Sonata No. 7)
9. מצב רוח - In The Mood
Bonuses (2008)
NoNames (Kzat Acheret), Live
10. Meedle - Songs Of Beatles
11. Return To Home - שובי לביתך
12. Fire Column - עמוד האש
13. Don Kichot - דון קישוט
Код:
Exact Audio Copy V1.3 from 2. September 2016
EAC extraction logfile from 25. December 2016, 6:56
שם טוב לוי / מצב רוח
Used drive  : HL-DT-STDVDRAM GH24NSB0   Adapter: 1  ID: 0
Read mode               : Secure
Utilize accurate stream : Yes
Defeat audio cache      : Yes
Make use of C2 pointers : No
Read offset correction                      : 6
Overread into Lead-In and Lead-Out          : No
Fill up missing offset samples with silence : Yes
Delete leading and trailing silent blocks   : No
Null samples used in CRC calculations       : Yes
Used interface                              : Native Win32 interface for Win NT & 2000
Gap handling                                : Appended to previous track
Used output format              : User Defined Encoder
Selected bitrate                : 1024 kBit/s
Quality                         : High
Add ID3 tag                     : No
Command line compressor         : C:\Program Files (x86)\Exact Audio Copy\FLAC\FLAC.EXE
Additional command line options : -V -8 -T "ARTIST=%artist%" -T "TITLE=%title%" -T "ALBUM=%albumtitle%" -T "DATE=%year%" -T "TRACKNUMBER=%tracknr%" -T "GENRE=%genre%" -T "COMMENT=ripped by Musicgate" %source% -o %dest%
TOC of the extracted CD
     Track |   Start  |  Length  | Start sector | End sector
    ---------------------------------------------------------
        1  |  0:00.00 |  4:27.15 |         0    |    20039
        2  |  4:27.15 |  3:08.15 |     20040    |    34154
        3  |  7:35.30 |  4:23.00 |     34155    |    53879
        4  | 11:58.30 |  3:00.66 |     53880    |    67445
        5  | 14:59.21 |  3:40.70 |     67446    |    84015
        6  | 18:40.16 |  2:55.03 |     84016    |    97143
        7  | 21:35.19 |  3:19.67 |     97144    |   112135
        8  | 24:55.11 |  3:06.53 |    112136    |   126138
        9  | 28:01.64 |  5:02.57 |    126139    |   148845
       10  | 33:04.46 |  5:14.65 |    148846    |   172460
       11  | 38:19.36 |  4:52.24 |    172461    |   194384
       12  | 43:11.60 |  3:31.51 |    194385    |   210260
       13  | 46:43.36 |  3:25.45 |    210261    |   225680
Track  1
     Filename D:\Musicgate's rips\שם טוב לוי - מצב רוח - 1975\01 - שירי סוף הדרך.wav
     Pre-gap length  0:00:02.00
     Peak level 97.7 %
     Extraction speed 1.0 X
     Track quality 100.0 %
     Test CRC C25983A6
     Copy CRC C25983A6
     Accurately ripped (confidence 1)  [F4CE3A73]  (AR v1)
     Copy OK
Track  2
     Filename D:\Musicgate's rips\שם טוב לוי - מצב רוח - 1975\02 - שיר.wav
     Peak level 97.7 %
     Extraction speed 0.9 X
     Track quality 99.9 %
     Test CRC 1576DB24
     Copy CRC 1576DB24
     Accurately ripped (confidence 1)  [55542DEB]  (AR v1)
     Copy OK
Track  3
     Filename D:\Musicgate's rips\שם טוב לוי - מצב רוח - 1975\03 - צער הלילה.wav
     Peak level 97.7 %
     Extraction speed 1.3 X
     Track quality 100.0 %
     Test CRC 65CC9199
     Copy CRC 65CC9199
     Accurately ripped (confidence 1)  [0B56001C]  (AR v1)
     Copy OK
Track  4
     Filename D:\Musicgate's rips\שם טוב לוי - מצב רוח - 1975\04 - יצאתי לטייל ברחוב.wav
     Peak level 97.7 %
     Extraction speed 1.3 X
     Track quality 100.0 %
     Test CRC 296C29E8
     Copy CRC 296C29E8
     Accurately ripped (confidence 1)  [28DA114D]  (AR v1)
     Copy OK
Track  5
     Filename D:\Musicgate's rips\שם טוב לוי - מצב רוח - 1975\05 - יום הולדת.wav
     Peak level 97.7 %
     Extraction speed 1.4 X
     Track quality 100.0 %
     Test CRC A01DE282
     Copy CRC A01DE282
     Accurately ripped (confidence 1)  [F8408405]  (AR v1)
     Copy OK
Track  6
     Filename D:\Musicgate's rips\שם טוב לוי - מצב רוח - 1975\06 - קטע נעים.wav
     Peak level 97.7 %
     Extraction speed 1.4 X
     Track quality 100.0 %
     Test CRC 3087FE2E
     Copy CRC 3087FE2E
     Accurately ripped (confidence 1)  [A0F46A12]  (AR v1)
     Copy OK
Track  7
     Filename D:\Musicgate's rips\שם טוב לוי - מצב רוח - 1975\07 - אחרי שהלכת מכאן.wav
     Peak level 97.7 %
     Extraction speed 1.5 X
     Track quality 100.0 %
     Test CRC 26D7A571
     Copy CRC 26D7A571
     Accurately ripped (confidence 1)  [DE0D9AA3]  (AR v1)
     Copy OK
Track  8
     Filename D:\Musicgate's rips\שם טוב לוי - מצב רוח - 1975\08 - אדג'יו.wav
     Peak level 97.7 %
     Extraction speed 1.5 X
     Track quality 100.0 %
     Test CRC 667FD54B
     Copy CRC 667FD54B
     Accurately ripped (confidence 1)  [1C6A020A]  (AR v1)
     Copy OK
Track  9
     Filename D:\Musicgate's rips\שם טוב לוי - מצב רוח - 1975\09 - מצב רוח.wav
     Peak level 97.7 %
     Extraction speed 1.6 X
     Track quality 99.9 %
     Test CRC 503881D8
     Copy CRC 503881D8
     Accurately ripped (confidence 1)  [F18C98D6]  (AR v1)
     Copy OK
Track 10
     Filename D:\Musicgate's rips\שם טוב לוי - מצב רוח - 1975\10 - מחרוזת שירי ביטלס.wav
     Peak level 96.6 %
     Extraction speed 1.8 X
     Track quality 100.0 %
     Test CRC 1F301F05
     Copy CRC 1F301F05
     Accurately ripped (confidence 1)  [3A7FE87F]  (AR v1)
     Copy OK
Track 11
     Filename D:\Musicgate's rips\שם טוב לוי - מצב רוח - 1975\11 - שובי לביתך.wav
     Pre-gap length  0:00:02.00
     Peak level 98.8 %
     Extraction speed 1.9 X
     Track quality 100.0 %
     Test CRC FDD7858C
     Copy CRC FDD7858C
     Accurately ripped (confidence 1)  [D8DC34E8]  (AR v1)
     Copy OK
Track 12
     Filename D:\Musicgate's rips\שם טוב לוי - מצב רוח - 1975\12 - עמוד האש.wav
     Peak level 97.7 %
     Extraction speed 1.9 X
     Track quality 100.0 %
     Test CRC 1FD2B016
     Copy CRC 1FD2B016
     Accurately ripped (confidence 1)  [28A27C76]  (AR v1)
     Copy OK
Track 13
     Filename D:\Musicgate's rips\שם טוב לוי - מצב רוח - 1975\13 - דון קישוט.wav
     Peak level 97.7 %
     Extraction speed 2.0 X
     Track quality 100.0 %
     Test CRC F30BD5AA
     Copy CRC F30BD5AA
     Accurately ripped (confidence 1)  [A15FC433]  (AR v1)
     Copy OK
All tracks accurately ripped
No errors occurred
End of status report
==== Log checksum DDB5966743BD01BC8DAC4F809F3AD6A87CE13E752A565A29F64DB74A279D2465 ====
Код:
REM GENRE "Rock Israeli"
REM DATE 1975
REM DISCID B60BC10D
REM COMMENT "ExactAudioCopy v1.3"
PERFORMER "שם טוב לוי"
TITLE "מצב רוח"
REM COMPOSER ""
FILE "01 - שירי סוף הדרך.wav" WAVE
  TRACK 01 AUDIO
    TITLE "שירי סוף הדרך"
    PERFORMER "שם טוב לוי"
    REM COMPOSER ""
    INDEX 01 00:00:00
FILE "02 - שיר.wav" WAVE
  TRACK 02 AUDIO
    TITLE "שיר"
    PERFORMER "שם טוב לוי"
    REM COMPOSER ""
    INDEX 01 00:00:00
FILE "03 - צער הלילה.wav" WAVE
  TRACK 03 AUDIO
    TITLE "צער הלילה"
    PERFORMER "שם טוב לוי"
    REM COMPOSER ""
    INDEX 01 00:00:00
FILE "04 - יצאתי לטייל ברחוב.wav" WAVE
  TRACK 04 AUDIO
    TITLE "יצאתי לטייל ברחוב"
    PERFORMER "שם טוב לוי"
    REM COMPOSER ""
    INDEX 01 00:00:00
FILE "05 - 05 - יום הולדת.wav" WAVE
  TRACK 05 AUDIO
    TITLE "05 - יום הולדת"
    PERFORMER "שם טוב לוי"
    REM COMPOSER ""
    INDEX 01 00:00:00
FILE "06 - 06 - קטע נעים.wav" WAVE
  TRACK 06 AUDIO
    TITLE "06 - קטע נעים"
    PERFORMER "שם טוב לוי"
    REM COMPOSER ""
    INDEX 01 00:00:00
FILE "07 - אחרי שהלכת מכאן.wav" WAVE
  TRACK 07 AUDIO
    TITLE "אחרי שהלכת מכאן"
    PERFORMER "שם טוב לוי"
    REM COMPOSER ""
    INDEX 01 00:00:00
FILE "08 - אדג'יו.wav" WAVE
  TRACK 08 AUDIO
    TITLE "אדג'יו"
    PERFORMER "שם טוב לוי"
    REM COMPOSER ""
    INDEX 01 00:00:00
FILE "09 - מצב רוח.wav" WAVE
  TRACK 09 AUDIO
    TITLE "מצב רוח"
    PERFORMER "שם טוב לוי"
    REM COMPOSER ""
    INDEX 01 00:00:00
FILE "10 - מחרוזת שירי ביטלס.wav" WAVE
  TRACK 10 AUDIO
    TITLE "מחרוזת שירי ביטלס"
    PERFORMER "שם טוב לוי"
    REM COMPOSER ""
    INDEX 01 00:00:00
  TRACK 11 AUDIO
    TITLE "שובי לביתך"
    PERFORMER "שם טוב לוי"
    REM COMPOSER ""
    INDEX 00 05:12:65
FILE "11 - שובי לביתך.wav" WAVE
    INDEX 01 00:00:00
FILE "12 - עמוד האש.wav" WAVE
  TRACK 12 AUDIO
    TITLE "עמוד האש"
    PERFORMER "שם טוב לוי"
    REM COMPOSER ""
    INDEX 01 00:00:00
FILE "13 - דון קישוט.wav" WAVE
  TRACK 13 AUDIO
    TITLE "דון קישוט"
    PERFORMER "שם טוב לוי"
    REM COMPOSER ""
    INDEX 01 00:00:00
Код:
-----------------------
DON'T MODIFY THIS FILE
-----------------------
PERFORMER: auCDtect Task Manager, ver. 1.6.0 RC1 build 1.6.0.1
Copyright (c) 2008-2010 y-soft. All rights reserved
[url=http://y-soft.org]http://y-soft.org[/url]
ANALYZER: auCDtect: CD records authenticity detector, version 0.8.2
Copyright (c) 2004 Oleg Berngardt. All rights reserved.
Copyright (c) 2004 Alexander Djourik. All rights reserved.
FILE: 07 - אחרי שהלכת מכאן.flac
  Size: 21528696 Hash: 4F78347985D17641F81A123DF57EE5E9 Accuracy: -m0
  Conclusion: CDDA 100%
  Signature: 6F26D52BCAC11B8CB9773510B34209DA698BED13
FILE: 13 - דון קישוט.flac
  Size: 20622256 Hash: C13586E064E9CED3B9B7E77E859F27F8 Accuracy: -m0
  Conclusion: CDDA 100%
  Signature: 766D20AD64233897A7EE541E2C27AE3577BC1C81
FILE: 06 - קטע נעים.flac
  Size: 20146162 Hash: D1DC4B27259C1777D181481DC6684350 Accuracy: -m0
  Conclusion: CDDA 100%
  Signature: D0D3726A2C0AF284AD043AE8DD1A63BE915997F4
FILE: 12 - עמוד האש.flac
  Size: 22656450 Hash: 2E4D1091E276F9BD94240A7899E37FB7 Accuracy: -m0
  Conclusion: CDDA 86%
  Signature: 7EF884C6C3539723373F61A4F4A9ACAE69C0659A
FILE: 05 - יום הולדת.flac
  Size: 27061993 Hash: 2A752279D9870E9A7FF82D1FB981713D Accuracy: -m0
  Conclusion: CDDA 100%
  Signature: EA1FA2249AC7FFD09EB66C28B185B0D46077F7FA
FILE: 11 - שובי לביתך.flac
  Size: 36404356 Hash: EC56D0827BF73CC640E17082776C09E8 Accuracy: -m0
  Conclusion: CDDA 100%
  Signature: 391865F5C550FB78000437F3A87CFC69739FFCAF
FILE: 04 - יצאתי לטייל ברחוב.flac
  Size: 20812252 Hash: 978D5824E84A6A87BC766EA34F92D05A Accuracy: -m0
  Conclusion: CDDA 100%
  Signature: 7E8D0DB3BD5718D40EBFF6F9391BA4848554902D
FILE: 10 - מחרוזת שירי ביטלס.flac
  Size: 35627321 Hash: 2B9756063CA9B958F6E8508E9ECC5D34 Accuracy: -m0
  Conclusion: CDDA 100%
  Signature: 9DDC2F30095D24EFBD0A8185301C5BBAFE8DFA3D
FILE: 03 - צער הלילה.flac
  Size: 29071261 Hash: 111E085E03C09BB33AAC3035AC24F085 Accuracy: -m0
  Conclusion: CDDA 100%
  Signature: 1C7109BF7EE06DAAFEF56A52A4A17A2314AF745A
FILE: 09 - מצב רוח.flac
  Size: 36257252 Hash: B8BE14E4A5BC90E0F87C5DF4A9F614B9 Accuracy: -m0
  Conclusion: CDDA 100%
  Signature: FF85D861BC2D4143CDBFEC7908CF00A42D4139E9
FILE: 02 - שיר.flac
  Size: 20761704 Hash: 850D2039318E1DDD48AD081778284C42 Accuracy: -m0
  Conclusion: CDDA 100%
  Signature: 9AFAC00BF659B0F1487046F7D77FAA5C9114A1B1
FILE: 08 - אדג'יו.flac
  Size: 19766373 Hash: B331EF47D52F600C721DBDFCF04AAE52 Accuracy: -m0
  Conclusion: CDDA 100%
  Signature: 476047C05582BA6557E7DC988406A1F4261EC5AB
FILE: 01 - שירי סוף הדרך.flac
  Size: 30851079 Hash: F4D180AAC3E12585A91B851AB098EBF2 Accuracy: -m0
  Conclusion: CDDA 100%
  Signature: 1319C0B445300CDF1E53ABB9EA0A3A9ED3CD7CD4
Код:
[CUETools log; Date: 1/17/2020 7:39:20 AM; Version: 2.1.5]
[CTDB TOCID: m_Z6NmWVGyL.qiKVBNFvZRUD8yo-] disk not present in database.
[AccurateRip ID: 0017995e-00ecdc01-b60bc10d] found.
Track   [  CRC   |   V2   ] Status
 01     [f4ce3a73|92a9c7fe] (1+0/1) Accurately ripped
 02     [55542deb|877734e9] (1+0/1) Accurately ripped
 03     [0b56001c|2c7b0a18] (1+0/1) Accurately ripped
 04     [28da114d|82600a5e] (1+0/1) Accurately ripped
 05     [f8408405|3ffd2894] (1+0/1) Accurately ripped
 06     [a0f46a12|314f4f09] (1+0/1) Accurately ripped
 07     [de0d9aa3|88391e73] (1+0/1) Accurately ripped
 08     [1c6a020a|8a36096e] (1+0/1) Accurately ripped
 09     [f18c98d6|554ede5d] (1+0/1) Accurately ripped
 10     [3a7fe87f|9cbffa38] (1+0/1) Accurately ripped
 11     [d8dc34e8|48364da9] (1+0/1) Accurately ripped
 12     [28a27c76|5986cda6] (1+0/1) Accurately ripped
 13     [a15fc433|cc54d127] (1+0/1) Accurately ripped
Track Peak [ CRC32  ] [W/O NULL] [  LOG   ]
 --   98.8 [39307023] [D4010040]
 01   97.7 [C25983A6] [6E71B4CB]   CRC32
 02   97.7 [1576DB24] [D96C73F7]   CRC32
 03   97.7 [65CC9199] [FFDC3FD8]   CRC32
 04   97.7 [296C29E8] [349C21F1]   CRC32
 05   97.7 [A01DE282] [0033964A]   CRC32
 06   97.7 [3087FE2E] [AC148C8B]   CRC32
 07   97.7 [26D7A571] [FDD5E2FA]   CRC32
 08   97.7 [667FD54B] [FD905AD2]   CRC32
 09   97.7 [503881D8] [3BA988EC]   CRC32
 10   96.6 [1F301F05] [0823C6FF]   CRC32
 11   98.8 [FDD7858C] [9840569E]   CRC32
 12   97.7 [1FD2B016] [1C08C7AF]   CRC32
 13   97.7 [F30BD5AA] [3F0CE5DD]   CRC32
Код:
     Track |   Start  |  Length  | Start sector | End sector
    ---------------------------------------------------------
        1  |  0:00.00 |  4:27.15 |         0    |    20039
        2  |  4:27.15 |  3:08.15 |     20040    |    34154
        3  |  7:35.30 |  4:23.00 |     34155    |    53879
        4  | 11:58.30 |  3:00.66 |     53880    |    67445
        5  | 14:59.21 |  3:40.70 |     67446    |    84015
        6  | 18:40.16 |  2:55.03 |     84016    |    97143
        7  | 21:35.19 |  3:19.67 |     97144    |   112135
        8  | 24:55.11 |  3:06.53 |    112136    |   126138
        9  | 28:01.64 |  5:02.57 |    126139    |   148845
       10  | 33:04.46 |  5:14.65 |    148846    |   172460
       11  | 38:19.36 |  4:52.24 |    172461    |   194384
       12  | 43:11.60 |  3:31.51 |    194385    |   210260
       13  | 46:43.36 |  3:25.45 |    210261    |   225680
Код:
foobar2000 1.3.3 / Dynamic Range Meter 1.1.1
log date: 2020-03-19 14:34:48
--------------------------------------------------------------------------------
Analyzed: שם טוב לוי / מצב רוח
--------------------------------------------------------------------------------
DR         Peak         RMS     Duration Track
--------------------------------------------------------------------------------
DR8       -0.20 dB   -11.23 dB      4:27 01-שירי סוף הדרך
DR6       -0.20 dB    -9.21 dB      3:08 02-שיר
DR8       -0.20 dB   -10.83 dB      4:23 03-צער הלילה
DR7       -0.20 dB    -9.55 dB      3:01 04-יצאתי לטייל ברחוב
DR7       -0.20 dB    -9.75 dB      3:41 05-יום הולדת
DR6       -0.20 dB    -8.70 dB      2:55 06-קטע נעים
DR6       -0.20 dB    -9.14 dB      3:20 07-אחרי שהלכת מכאן
DR6       -0.20 dB    -8.33 dB      3:07 08-אדג'יו
DR8       -0.20 dB   -11.32 dB      5:03 09-מצב רוח
DR7       -0.30 dB   -10.33 dB      5:15 10-מחרוזת שירי ביטלס
DR5       -0.10 dB    -6.58 dB      4:52 11-שובי לביתך
DR7       -0.20 dB    -9.58 dB      3:32 12-עמוד האש
DR7       -0.20 dB    -8.91 dB      3:26 13-דון קישוט
--------------------------------------------------------------------------------
Number of tracks:  13
Official DR value: DR7
Samplerate:        44100 Hz
Channels:          2
Bits per sample:   16
Bitrate:           802 kbps
Codec:             FLAC
================================================================================

Bass – Avner Yifat (2,7)
Bass – Ohad Inger (1,3,4,6,8,9)
Drums – Meir Fenigstein (2,7)
Drums – Meir Israel (1,4,6)
Electric Piano – Alona Turel (4)
Electric Piano, Flute – Shem-Tov Levi (7)
Electric Piano, Synthesizer, Flute – Shem-Tov Levi (2)
Flute – Shem-Tov Levi (9)
Guitar – Haim Romano (1,3,4,6,8,9)
Guitar – Yitzhak Klepter (2,7)
Piano – Avner Kenner (9)
Piano, Clavinet, Synthesizer – Shem-Tov Levi (6)
Piano, Flute – Shem-Tov Levi (8)
Piano, Organ – Shem-Tov Levi (3)
Piano, Recorder – Shem-Tov Levi (5)
Piano, Recorder, Percussion – Shem-Tov Levi (1)

1977 (2007) - Sheshet - Sheshet || 1:07:32
#777Жанр: Progerssive, Ethnic, Rock, Fusion
Носитель: CD (30th Anniversary Expanded Edition)
Страна-производитель диска (релиза): Israel
Год издания оригинала: 1977
Год переиздания: 2007
Издатель (лейбл): NMC
Номер по каталогу: 82366-2-NMCX
#777Трэклист:
CD 1 (Original Album):
1. Clappers (05:04)
2. Colours (06:50)
3. Left Foot Samba (03:29)
4. 7/8 (04:07)
5. If Only You Had Come (02:42)
6. Autumn Nights (04:39)
7. Debka (06:17)
8. Dinosaurus Jr. (06:38)
9. F Minor (06:25)
Код:
Exact Audio Copy V0.99 prebeta 4 from 23. January 2008
EAC extraction logfile from 27. June 2009, 22:58
Sheshet / Sheshet (CD1)
Used drive  : HL-DT-STDVD-RAM GH22NP20   Adapter: 0  ID: 0
Read mode               : Secure
Utilize accurate stream : Yes
Defeat audio cache      : Yes
Make use of C2 pointers : No
Read offset correction                      : 102
Overread into Lead-In and Lead-Out          : No
Fill up missing offset samples with silence : Yes
Delete leading and trailing silent blocks   : No
Null samples used in CRC calculations       : Yes
Used interface                              : Installed external ASPI interface
Gap handling                                : Appended to previous track
Used output format              : User Defined Encoder
Selected bitrate                : 320 kBit/s
Quality                         : High
Add ID3 tag                     : Yes
Command line compressor         : C:\Program Files\Exact Audio Copy\Flac\flac.exe
Additional command line options : -V -8 -T "artist=%a" -T "title=%t" -T "album=%g" -T "date=%y" -T "tracknumber=%n" -T "genre=%m" %s
TOC of the extracted CD
     Track |   Start  |  Length  | Start sector | End sector
    ---------------------------------------------------------
        1  |  0:00.00 |  5:03.61 |         0    |    22785
        2  |  5:03.61 |  6:50.20 |     22786    |    53555
        3  | 11:54.06 |  3:29.24 |     53556    |    69254
        4  | 15:23.30 |  4:06.62 |     69255    |    87766
        5  | 19:30.17 |  2:41.65 |     87767    |    99906
        6  | 22:12.07 |  4:39.15 |     99907    |   120846
        7  | 26:51.22 |  6:16.42 |    120847    |   149088
        8  | 33:07.64 |  6:37.55 |    149089    |   178918
        9  | 39:45.44 |  6:25.36 |    178919    |   207829
Track  1
     Filename D:\music\rip\Sheshet - Sheshet (1977) {2cd, Extended Edition, 2007. NMC} (FLAC)\CD1\01 - Clappers.wav
     Pre-gap length  0:00:02.00
     Peak level 98.8 %
     Track quality 99.9 %
     Test CRC 5777C380
     Copy CRC 5777C380
     Track not present in AccurateRip database
     Copy OK
Track  2
     Filename D:\music\rip\Sheshet - Sheshet (1977) {2cd, Extended Edition, 2007. NMC} (FLAC)\CD1\02 - Colors.wav
     Pre-gap length  0:00:01.00
     Peak level 98.8 %
     Track quality 100.0 %
     Test CRC 62DD892F
     Copy CRC 62DD892F
     Track not present in AccurateRip database
     Copy OK
Track  3
     Filename D:\music\rip\Sheshet - Sheshet (1977) {2cd, Extended Edition, 2007. NMC} (FLAC)\CD1\03 - Left Foot First Samba.wav
     Pre-gap length  0:00:01.00
     Peak level 98.8 %
     Track quality 100.0 %
     Test CRC DBF32E6C
     Copy CRC DBF32E6C
     Track not present in AccurateRip database
     Copy OK
Track  4
     Filename D:\music\rip\Sheshet - Sheshet (1977) {2cd, Extended Edition, 2007. NMC} (FLAC)\CD1\04 - 7,8.wav
     Pre-gap length  0:00:01.00
     Peak level 98.8 %
     Track quality 100.0 %
     Test CRC 7126AB2F
     Copy CRC 7126AB2F
     Track not present in AccurateRip database
     Copy OK
Track  5
     Filename D:\music\rip\Sheshet - Sheshet (1977) {2cd, Extended Edition, 2007. NMC} (FLAC)\CD1\05 - If Only You Came.wav
     Pre-gap length  0:00:01.00
     Peak level 98.8 %
     Track quality 100.0 %
     Test CRC FD0A9ABA
     Copy CRC FD0A9ABA
     Track not present in AccurateRip database
     Copy OK
Track  6
     Filename D:\music\rip\Sheshet - Sheshet (1977) {2cd, Extended Edition, 2007. NMC} (FLAC)\CD1\06 - Fall Nights.wav
     Pre-gap length  0:00:01.00
     Peak level 98.8 %
     Track quality 100.0 %
     Test CRC 809358BE
     Copy CRC 809358BE
     Track not present in AccurateRip database
     Copy OK
Track  7
     Filename D:\music\rip\Sheshet - Sheshet (1977) {2cd, Extended Edition, 2007. NMC} (FLAC)\CD1\07 - Debka.wav
     Pre-gap length  0:00:01.00
     Peak level 98.8 %
     Track quality 99.9 %
     Test CRC 95B8681B
     Copy CRC 95B8681B
     Track not present in AccurateRip database
     Copy OK
Track  8
     Filename D:\music\rip\Sheshet - Sheshet (1977) {2cd, Extended Edition, 2007. NMC} (FLAC)\CD1\08 - Dinosaurus Jr..wav
     Pre-gap length  0:00:01.00
     Peak level 98.8 %
     Track quality 100.0 %
     Test CRC 58286125
     Copy CRC 58286125
     Track not present in AccurateRip database
     Copy OK
Track  9
     Filename D:\music\rip\Sheshet - Sheshet (1977) {2cd, Extended Edition, 2007. NMC} (FLAC)\CD1\09 - F Minor.wav
     Pre-gap length  0:00:01.00
     Peak level 98.8 %
     Track quality 100.0 %
     Test CRC 319A3B40
     Copy CRC 319A3B40
     Track not present in AccurateRip database
     Copy OK
None of the tracks are present in the AccurateRip database
No errors occurred
End of status report
Код:
REM GENRE "Progressive Rock"
REM DATE 1977
REM DISCID 780AD309
REM COMMENT "ExactAudioCopy v0.99pb4"
PERFORMER "Sheshet"
TITLE "Sheshet (CD1)"
FILE "01 - Clappers.wav" WAVE
  TRACK 01 AUDIO
    TITLE "Clappers"
    PERFORMER "Sheshet"
    INDEX 01 00:00:00
  TRACK 02 AUDIO
    TITLE "Colors"
    PERFORMER "Sheshet"
    INDEX 00 05:02:61
FILE "02 - Colors.wav" WAVE
    INDEX 01 00:00:00
  TRACK 03 AUDIO
    TITLE "Left Foot First Samba"
    PERFORMER "Sheshet"
    INDEX 00 06:49:20
FILE "03 - Left Foot First Samba.wav" WAVE
    INDEX 01 00:00:00
  TRACK 04 AUDIO
    TITLE "7/8"
    PERFORMER "Sheshet"
    INDEX 00 03:28:24
FILE "04 - 7,8.wav" WAVE
    INDEX 01 00:00:00
  TRACK 05 AUDIO
    TITLE "If Only You Came"
    PERFORMER "Sheshet"
    INDEX 00 04:05:62
FILE "05 - If Only You Came.wav" WAVE
    INDEX 01 00:00:00
  TRACK 06 AUDIO
    TITLE "Fall Nights"
    PERFORMER "Sheshet"
    INDEX 00 02:40:65
FILE "06 - Fall Nights.wav" WAVE
    INDEX 01 00:00:00
  TRACK 07 AUDIO
    TITLE "Debka"
    PERFORMER "Sheshet"
    INDEX 00 04:38:15
FILE "07 - Debka.wav" WAVE
    INDEX 01 00:00:00
  TRACK 08 AUDIO
    TITLE "Dinosaurus Jr."
    PERFORMER "Sheshet"
    INDEX 00 06:15:42
FILE "08 - Dinosaurus Jr..wav" WAVE
    INDEX 01 00:00:00
  TRACK 09 AUDIO
    TITLE "F Minor"
    PERFORMER "Sheshet"
    INDEX 00 06:36:55
FILE "09 - F Minor.wav" WAVE
    INDEX 01 00:00:00
Код:
-----------------------
DON'T MODIFY THIS FILE
-----------------------
PERFORMER: auCDtect Task Manager, ver. 1.6.0 RC1 build 1.6.0.1
Copyright (c) 2008-2010 y-soft. All rights reserved
[url=http://y-soft.org]http://y-soft.org[/url]
ANALYZER: auCDtect: CD records authenticity detector, version 0.8.2
Copyright (c) 2004 Oleg Berngardt. All rights reserved.
Copyright (c) 2004 Alexander Djourik. All rights reserved.
FILE: 09 - F Minor.flac
  Size: 35211428 Hash: A00FFDE79B51B68F856020428397D76E Accuracy: -m0
  Conclusion: CDDA 87%
  Signature: 1EDB2D3C387368665A064D618B95F007D46203B2
FILE: 08 - Dinosaurus Jr..flac
  Size: 46850006 Hash: F7C68A75409DCC12BB7236301DB4C236 Accuracy: -m0
  Conclusion: CDDA 100%
  Signature: 12D4A0C23D536485A4E99A985A5675D59C736F3A
FILE: 07 - Debka.flac
  Size: 42170875 Hash: E23DE2114961F43FF372533CA290DD66 Accuracy: -m0
  Conclusion: CDDA 100%
  Signature: D41F8BCCE25AF19C4CE7C5B921889B12417ADBC7
FILE: 06 - Fall Nights.flac
  Size: 30688757 Hash: D2BB485DE30C8D887DD9A2486CFD93DF Accuracy: -m0
  Conclusion: CDDA 100%
  Signature: 9DED71F62D57DC14340C8B8BD81F91D93CC0AFF6
FILE: 05 - If Only You Came.flac
  Size: 12772751 Hash: F5D476BD9443CA51A827B5566EAC7F67 Accuracy: -m0
  Conclusion: CDDA 58%
  Signature: 8E7B77347896E8C7C67BF00D362BAB5C2E296933
FILE: 04 - 7,8.flac
  Size: 27583846 Hash: B8CD396737A064429F0A07401474E491 Accuracy: -m0
  Conclusion: CDDA 100%
  Signature: B40CA492ECAC76B21AB076501FAB62BA017CB627
FILE: 03 - Left Foot First Samba.flac
  Size: 25992037 Hash: AC6DF7FB55175854CAEE509F14624D8D Accuracy: -m0
  Conclusion: CDDA 100%
  Signature: 6E0D6808DA411DEF21622942C22A7D22C8A99FD7
FILE: 02 - Colors.flac
  Size: 44023395 Hash: A438B4BFBA8850181651FFD42D2F568D Accuracy: -m0
  Conclusion: CDDA 99%
  Signature: 7CA58D1AA001F626087C5828DA8995B66F67D3AD
FILE: 01 - Clappers.flac
  Size: 34808683 Hash: 7226756800BCE205A2BBFA8C5E12840A Accuracy: -m0
  Conclusion: CDDA 100%
  Signature: F98A97ECCE93E5EE72DE7FD188A03FD690593E1C
Код:
[CUETools log; Date: 20.06.2020 17:51:20; Version: 2.1.5]
[CTDB TOCID: 9S3QYmiMrAmCDISQneFEDLrGWzE-] found.
Track | CTDB Status
  1   | (11/11) Accurately ripped
  2   | (11/11) Accurately ripped
  3   | (11/11) Accurately ripped
  4   | (11/11) Accurately ripped
  5   | (11/11) Accurately ripped
  6   | (11/11) Accurately ripped
  7   | (11/11) Accurately ripped
  8   | (11/11) Accurately ripped
  9   | (11/11) Accurately ripped
[AccurateRip ID: 000f1b04-006e9b6e-780ad309] found.
Track   [  CRC   |   V2   ] Status
 01     [861843dd|d217a323] (03+04/10) Accurately ripped
 02     [903af294|a2072a51] (03+04/10) Accurately ripped
 03     [91b45f55|86323db8] (03+04/10) Accurately ripped
 04     [b4e28bc9|465b74d8] (03+04/10) Accurately ripped
 05     [5af07676|5bd47a59] (03+04/10) Accurately ripped
 06     [180c2190|fe759494] (03+04/10) Accurately ripped
 07     [68726305|995e351d] (03+04/10) Accurately ripped
 08     [deac8caf|a934bfb1] (03+04/10) Accurately ripped
 09     [7456dd20|956d11ca] (03+04/10) Accurately ripped
Offsetted by 50:
 01     [c2b11cea] (00/10) No match (V2 was not tested)
 02     [cee8d5ec] (00/10) No match (V2 was not tested)
 03     [f9fe5d41] (00/10) No match (V2 was not tested)
 04     [8a9dcb67] (00/10) No match (V2 was not tested)
 05     [da5cc844] (00/10) No match (V2 was not tested)
 06     [36262ada] (00/10) No match (V2 was not tested)
 07     [c89cceef] (00/10) No match (V2 was not tested)
 08     [3a2d6be3] (00/10) No match (V2 was not tested)
 09     [5f081e44] (00/10) No match (V2 was not tested)
Track Peak [ CRC32  ] [W/O NULL] [  LOG   ]
 --   98,8 [97CA6A7F] [BFBF17FA]
 01   98,8 [5777C380] [D3AFDDFF]   CRC32
 02   98,8 [62DD892F] [9D82EA64]   CRC32
 03   98,8 [DBF32E6C] [1B87967B]   CRC32
 04   98,8 [7126AB2F] [34F03163]   CRC32
 05   98,8 [FD0A9ABA] [BEE68D38]   CRC32
 06   98,8 [809358BE] [1BEAEF5D]   CRC32
 07   98,8 [95B8681B] [AF8544FE]   CRC32
 08   98,8 [58286125] [FD356CB5]   CRC32
 09   98,8 [319A3B40] [187B6084]   CRC32
Код:
     Track |   Start  |  Length  | Start sector | End sector
    ---------------------------------------------------------
        1  |  0:00.00 |  5:03.61 |         0    |    22785
        2  |  5:03.61 |  6:50.20 |     22786    |    53555
        3  | 11:54.06 |  3:29.24 |     53556    |    69254
        4  | 15:23.30 |  4:06.62 |     69255    |    87766
        5  | 19:30.17 |  2:41.65 |     87767    |    99906
        6  | 22:12.07 |  4:39.15 |     99907    |   120846
        7  | 26:51.22 |  6:16.42 |    120847    |   149088
        8  | 33:07.64 |  6:37.55 |    149089    |   178918
        9  | 39:45.44 |  6:25.36 |    178919    |   207829
Код:
foobar2000 1.3.3 / Dynamic Range Meter 1.1.1
log date: 2020-06-20 17:51:36
--------------------------------------------------------------------------------
Analyzed: Sheshet / Sheshet (CD1)
--------------------------------------------------------------------------------
DR         Peak         RMS     Duration Track
--------------------------------------------------------------------------------
DR8       -0.10 dB   -10.43 dB      5:04 01-Clappers
DR9       -0.10 dB   -13.28 dB      6:50 02-Colors
DR8       -0.10 dB   -10.06 dB      3:29 03-Left Foot First Samba
DR9       -0.10 dB   -11.02 dB      4:07 04-7/8
DR8       -0.10 dB   -11.15 dB      2:42 05-If Only You Came
DR9       -0.10 dB   -10.43 dB      4:39 06-Fall Nights
DR8       -0.10 dB   -11.63 dB      6:17 07-Debka
DR9       -0.10 dB   -11.54 dB      6:38 08-Dinosaurus Jr.
DR11      -0.10 dB   -16.06 dB      6:25 09-F Minor
--------------------------------------------------------------------------------
Number of tracks:  9
Official DR value: DR9
Samplerate:        44100 Hz
Channels:          2
Bits per sample:   16
Bitrate:           731 kbps
Codec:             FLAC
================================================================================

#777Трэклист:
1. Journey Of The Stretchers (Opening Theme) (04:36)
2. Who (03:53)
3. 7/8 (02:40)
4. Oriental Walk (03:04)
5. Fiddles, Fightings And Sorrow (02:26)
6. Journey Of The Stretchers (04:43)
Код:
Exact Audio Copy V0.99 prebeta 4 from 23. January 2008
EAC extraction logfile from 27. June 2009, 23:26
Sheshet / Journey Of The Stretchers Soundtrack (disc 2)
Used drive  : HL-DT-STDVD-RAM GH22NP20   Adapter: 0  ID: 0
Read mode               : Secure
Utilize accurate stream : Yes
Defeat audio cache      : Yes
Make use of C2 pointers : No
Read offset correction                      : 102
Overread into Lead-In and Lead-Out          : No
Fill up missing offset samples with silence : Yes
Delete leading and trailing silent blocks   : No
Null samples used in CRC calculations       : Yes
Used interface                              : Installed external ASPI interface
Gap handling                                : Appended to previous track
Used output format              : User Defined Encoder
Selected bitrate                : 320 kBit/s
Quality                         : High
Add ID3 tag                     : Yes
Command line compressor         : C:\Program Files\Exact Audio Copy\Flac\flac.exe
Additional command line options : -V -8 -T "artist=%a" -T "title=%t" -T "album=%g" -T "date=%y" -T "tracknumber=%n" -T "genre=%m" %s
TOC of the extracted CD
     Track |   Start  |  Length  | Start sector | End sector
    ---------------------------------------------------------
        1  |  0:00.00 |  4:35.44 |         0    |    20668
        2  |  4:35.44 |  3:52.43 |     20669    |    38111
        3  |  8:28.12 |  2:39.66 |     38112    |    50102
        4  | 11:08.03 |  3:04.09 |     50103    |    63911
        5  | 14:12.12 |  2:25.63 |     63912    |    74849
        6  | 16:38.00 |  4:43.26 |     74850    |    96100
Track  1
     Filename D:\music\rip\Sheshet - Sheshet (1977) {2cd, Extended Edition, 2007. NMC} (FLAC)\CD2 - Journey Of The Stretchers Soundtrack\01 - Journey Of The Stretchers (Opening Theme).wav
     Pre-gap length  0:00:02.00
     Peak level 88.1 %
     Track quality 99.9 %
     Test CRC 16DD6828
     Copy CRC 16DD6828
     Track not present in AccurateRip database
     Copy OK
Track  2
     Filename D:\music\rip\Sheshet - Sheshet (1977) {2cd, Extended Edition, 2007. NMC} (FLAC)\CD2 - Journey Of The Stretchers Soundtrack\02 - Who.wav
     Pre-gap length  0:00:01.00
     Peak level 98.8 %
     Track quality 100.0 %
     Test CRC 35F01D68
     Copy CRC 35F01D68
     Track not present in AccurateRip database
     Copy OK
Track  3
     Filename D:\music\rip\Sheshet - Sheshet (1977) {2cd, Extended Edition, 2007. NMC} (FLAC)\CD2 - Journey Of The Stretchers Soundtrack\03 - 7,8.wav
     Pre-gap length  0:00:01.00
     Peak level 98.8 %
     Track quality 100.0 %
     Test CRC EED2B734
     Copy CRC EED2B734
     Track not present in AccurateRip database
     Copy OK
Track  4
     Filename D:\music\rip\Sheshet - Sheshet (1977) {2cd, Extended Edition, 2007. NMC} (FLAC)\CD2 - Journey Of The Stretchers Soundtrack\04 - Oriental Walk.wav
     Pre-gap length  0:00:01.00
     Peak level 98.8 %
     Track quality 100.0 %
     Test CRC 2905C53C
     Copy CRC 2905C53C
     Track not present in AccurateRip database
     Copy OK
Track  5
     Filename D:\music\rip\Sheshet - Sheshet (1977) {2cd, Extended Edition, 2007. NMC} (FLAC)\CD2 - Journey Of The Stretchers Soundtrack\05 - Fiddles, Fightings And Sorrow.wav
     Pre-gap length  0:00:01.00
     Peak level 98.8 %
     Track quality 100.0 %
     Test CRC C3644AB5
     Copy CRC C3644AB5
     Track not present in AccurateRip database
     Copy OK
Track  6
     Filename D:\music\rip\Sheshet - Sheshet (1977) {2cd, Extended Edition, 2007. NMC} (FLAC)\CD2 - Journey Of The Stretchers Soundtrack\06 - Journey Of The Stretchers.wav
     Pre-gap length  0:00:01.00
     Peak level 100.0 %
     Track quality 100.0 %
     Test CRC 83C7D89D
     Copy CRC 83C7D89D
     Track not present in AccurateRip database
     Copy OK
None of the tracks are present in the AccurateRip database
No errors occurred
End of status report
Код:
REM GENRE "Progressive Rock"
REM DATE 1977
REM DISCID 37050106
REM COMMENT "ExactAudioCopy v0.99pb4"
PERFORMER "Sheshet"
TITLE "Journey Of The Stretchers Soundtrack (disc 2)"
FILE "01 - Journey Of The Stretchers (Opening Theme).wav" WAVE
  TRACK 01 AUDIO
    TITLE "Journey Of The Stretchers (Opening Theme)"
    PERFORMER "Sheshet"
    INDEX 01 00:00:00
  TRACK 02 AUDIO
    TITLE "Who"
    PERFORMER "Sheshet"
    INDEX 00 04:34:44
FILE "02 - Who.wav" WAVE
    INDEX 01 00:00:00
  TRACK 03 AUDIO
    TITLE "7/8"
    PERFORMER "Sheshet"
    INDEX 00 03:51:43
FILE "03 - 7,8.wav" WAVE
    INDEX 01 00:00:00
  TRACK 04 AUDIO
    TITLE "Oriental Walk"
    PERFORMER "Sheshet"
    INDEX 00 02:38:66
FILE "04 - Oriental Walk.wav" WAVE
    INDEX 01 00:00:00
  TRACK 05 AUDIO
    TITLE "Fiddles, Fightings And Sorrow"
    PERFORMER "Sheshet"
    INDEX 00 03:03:09
FILE "05 - Fiddles, Fightings And Sorrow.wav" WAVE
    INDEX 01 00:00:00
  TRACK 06 AUDIO
    TITLE "Journey Of The Stretchers"
    PERFORMER "Sheshet"
    INDEX 00 02:24:63
FILE "06 - Journey Of The Stretchers.wav" WAVE
    INDEX 01 00:00:00
Код:
-----------------------
DON'T MODIFY THIS FILE
-----------------------
PERFORMER: auCDtect Task Manager, ver. 1.6.0 RC1 build 1.6.0.1
Copyright (c) 2008-2010 y-soft. All rights reserved
[url=http://y-soft.org]http://y-soft.org[/url]
ANALYZER: auCDtect: CD records authenticity detector, version 0.8.2
Copyright (c) 2004 Oleg Berngardt. All rights reserved.
Copyright (c) 2004 Alexander Djourik. All rights reserved.
FILE: 06 - Journey Of The Stretchers.flac
  Size: 29575808 Hash: D6BFDB42E014F3A94BEB8A36814F834D Accuracy: -m0
  Conclusion: CDDA 99%
  Signature: C227D71F505308A1D50FDC7C9A8BF85FFDA581A1
FILE: 05 - Fiddles, Fightings And Sorrow.flac
  Size: 16067685 Hash: 13DAD1DE97F42112BD62AA0F2C4D82AA Accuracy: -m0
  Conclusion: CDDA 100%
  Signature: 225B4558CCE3580C6C650BB2AFB9B591793D49D1
FILE: 04 - Oriental Walk.flac
  Size: 20685446 Hash: 8DD13455C17CA0B73E619B0213FC41BA Accuracy: -m0
  Conclusion: CDDA 100%
  Signature: 957C70246972C15FB71F8465E6BD63ABB890AC90
FILE: 03 - 7,8.flac
  Size: 18170941 Hash: 679C919EB4F275C3B640B88DF2FF8C78 Accuracy: -m0
  Conclusion: CDDA 100%
  Signature: F3921C17B2A8CFB0AEB8D6C765AACCE43D7237A7
FILE: 02 - Who.flac
  Size: 22045798 Hash: AE78D2E34E3EB84316C347FCA2FD98F9 Accuracy: -m0
  Conclusion: CDDA 100%
  Signature: 967B4349C000B4C0F7A0EA36AAE0AAD82A594819
FILE: 01 - Journey Of The Stretchers (Opening Theme).flac
  Size: 29371927 Hash: 4AA65BED7D4036773A9E6B493C52C661 Accuracy: -m0
  Conclusion: CDDA 100%
  Signature: 8A72114B635FB37586DDF65E691A30413E4B587C
Код:
[CUETools log; Date: 20.06.2020 17:51:23; Version: 2.1.5]
[CTDB TOCID: 0uE1LF80YNIwBs0f_0i5ocpyvAQ-] found.
Track | CTDB Status
  1   | (9/9) Accurately ripped
  2   | (9/9) Accurately ripped
  3   | (9/9) Accurately ripped
  4   | (9/9) Accurately ripped
  5   | (9/9) Accurately ripped
  6   | (9/9) Accurately ripped
[AccurateRip ID: 00053ec3-001b6d4e-37050106] found.
Track   [  CRC   |   V2   ] Status
 01     [677f0438|70237ac8] (2+0/7) Accurately ripped
 02     [bc83954c|c0590d2b] (2+0/7) Accurately ripped
 03     [8cd353aa|a65b11bf] (2+0/7) Accurately ripped
 04     [3d5d2625|0442f579] (2+0/7) Accurately ripped
 05     [be763414|5d33e931] (2+0/7) Accurately ripped
 06     [90cdb721|c26bba2f] (2+0/7) Accurately ripped
Offsetted by 2:
 01     [786dbc50] (0/7) No match (V2 was not tested)
 02     [e5657bce] (0/7) No match (V2 was not tested)
 03     [c6ded57c] (0/7) No match (V2 was not tested)
 04     [672ff8ed] (0/7) No match (V2 was not tested)
 05     [d3d27bee] (0/7) No match (V2 was not tested)
 06     [f5548f93] (0/7) No match (V2 was not tested)
Offsetted by 50:
 01     [3bd5a6e6] (0/7) No match (V2 was not tested)
 02     [ba9317fe] (0/7) No match (V2 was not tested)
 03     [37f3012c] (0/7) No match (V2 was not tested)
 04     [52f3bbad] (0/7) No match (V2 was not tested)
 05     [d479385e] (0/7) No match (V2 was not tested)
 06     [61f8da43] (0/7) No match (V2 was not tested)
Track Peak [ CRC32  ] [W/O NULL] [  LOG   ]
 --  100,0 [4FD8C104] [C9B7AE1C]
 01   88,1 [16DD6828] [0D07CAAC]   CRC32
 02   98,8 [35F01D68] [AEEFA4DE]   CRC32
 03   98,8 [EED2B734] [08BB1CAB]   CRC32
 04   98,8 [2905C53C] [4AEB7E20]   CRC32
 05   98,8 [C3644AB5] [93DB3810]   CRC32
 06  100,0 [83C7D89D] [6BA2D681]   CRC32
Код:
     Track |   Start  |  Length  | Start sector | End sector
    ---------------------------------------------------------
        1  |  0:00.00 |  4:35.44 |         0    |    20668
        2  |  4:35.44 |  3:52.43 |     20669    |    38111
        3  |  8:28.12 |  2:39.66 |     38112    |    50102
        4  | 11:08.03 |  3:04.09 |     50103    |    63911
        5  | 14:12.12 |  2:25.63 |     63912    |    74849
        6  | 16:38.00 |  4:43.26 |     74850    |    96100
Код:
foobar2000 1.3.3 / Dynamic Range Meter 1.1.1
log date: 2020-06-20 17:51:39
--------------------------------------------------------------------------------
Analyzed: Sheshet / Journey Of The Stretchers Soundtrack (disc 2)
--------------------------------------------------------------------------------
DR         Peak         RMS     Duration Track
--------------------------------------------------------------------------------
DR8       -1.10 dB   -10.99 dB      4:36 01-Journey Of The Stretchers (Opening Theme)
DR10      -0.10 dB   -11.74 dB      3:53 02-Who
DR8       -0.10 dB   -10.52 dB      2:40 03-7/8
DR8       -0.10 dB    -9.67 dB      3:04 04-Oriental Walk
DR8       -0.10 dB   -11.22 dB      2:26 05-Fiddles, Fightings And Sorrow
DR8        0.00 dB    -9.93 dB      4:43 06-Journey Of The Stretchers
--------------------------------------------------------------------------------
Number of tracks:  6
Official DR value: DR8
Samplerate:        44100 Hz
Channels:          2
Bits per sample:   16
Bitrate:           835 kbps
Codec:             FLAC
================================================================================

Одноименный альбом Израильской группы Шестерка (лидер - Шем Тов Леви, автор почти всех композиций) собрал лучших израильских музыкантов тех лет. Эта Прог / Джаз-роковая группа создала великолепную смесь западной, латинской и ближне-восточной музыки, которая звучит сегодня так же свежо, как и в дни записи. Вокалистка - Юдит Равитц, ставшая воследствии национальной звездой. В композициях сильное влияние прога (в основном Джентл Джиант), и альбом считается одним из лучших израильских альбомов всех времен. Новое издание включает в качестве бонуса экстра - редкий (известно только о нескольких копиях оригинального винила) второй альбом Шестерки, ранее не выпускавшийся на CD, музыку которого группа записала, как звуковую дорожку к израильскому фильму “The Stretcher March” (см примечание). Еднственный вокальный номер на втором альбом пел никто иной, как Гиди Гов, игравший так же главную роль в фильме. Переиздание этого альбома - важное событие для Израильской Прог-дискографии
Shmulik Aroch - bass, percussion, vocals
Shmulik Budagov - guitar, vocals
Shem-Tov Levi - flute, recoder, vocals
Ikie Levi - drums, percussion
Adi Renert - keyboards, vocals
Yehudith Ravitz - guitar, percussion, vocals
Правила, инструкции, FAQ!!!
Торрент  Добавлен [27 июн 2020, 19:10] Скачать торрент Магнет ссылка
Скачать торрент
[ Размер 74.38 КБ / Просмотров 3 ]

Статус
Проверен 
 
Размер  5.14 ГБ
Приватный: Нет (DHT включён)
.torrent скачан  0
 


     Отправить личное сообщение
   
Страница 1 из 1
Показать сообщения за:  Поле сортировки  
Начать новую тему Ответить на тему


Сейчас этот форум просматривают: нет зарегистрированных пользователей и гости: 0


Вы не можете начинать темы
Вы не можете отвечать на сообщения
Вы не можете редактировать свои сообщения
Вы не можете удалять свои сообщения
Вы не можете добавлять вложения

Перейти:  
cron