Начать новую тему Ответить на тему
Статистика раздачи
Размер: 336.49 МБ | Добавлен: 28 апр 2020, 19:53 | Скачали: 0
Сидеров: 1  [0 байт/сек]    Личеров: 1  [0 байт/сек]
Пред. тема | След. тема 

Автор
Сообщение

СообщениеДобавлено: 28 апр 2020, 19:53 

Ответить с цитатой 

David Paton (ex- Pilot, The Alan Parsons Project) / The Traveller: Another Pilot Project
Жанр: Soft Rock, Power Pop
Носитель: CD
Страна-производитель релиза: EU
Год издания: 2019
Издатель (лейбл): David Paton Songs
Номер по каталогу: DPS 011
Страна исполнителя (группы): Великобритания
Страна-производитель данного диска: Россия
Аудиокодек: FLAC (*.flac)
Тип рипа: image+.cue
Продолжительность: 00:52:17
Источник: собственный рип
Наличие сканов в содержимом раздачи: да (фотосканы)
Треклист:
01. Damned If I Do
02. The Cask Of Amontillado
03. (The System Of) Dr. Tarr And Professor Fether
04. Some Other Time
05. I'd Rather Be A Man
06. If I Could Change Your Mind
07. Days Are Numbers (The Traveller)
08. Gemini
09. Light Of The World
10. Separate Lives
11. The Same Old Sun
.
Код:
Exact Audio Copy V1.3 from 2. September 2016
Отчёт EAC об извлечении, выполненном 30. марта 2020, 20:10
 David Paton / The Traveller. Another Pilot Project
Дисковод: HL-DT-STDVDRAM GH24NSD1   Adapter: 1  ID: 0
Режим чтения                 : Достоверность
Использование точного потока : Да
Отключение кэша аудио        : Да
Использование указателей C2  : Нет
Коррекция смещения при чтении                     : 6
Способность читать области Lead-in и Lead-out     : Нет
Заполнение пропущенных сэмплов тишиной            : Да
Удаление блоков с тишиной в начале и конце        : Нет
При вычислениях CRC использовались нулевые сэмплы : Да
Интерфейс                                         : Встроенный Win32-интерфейс для Win NT/2000
Выходной формат          : Пользовательский кодировщик
Выбранный битрейт        : 896 kBit/s
Качество                 : Высокий
Добавление ID3-тега      : Нет
Утилита сжатия           : C:\Program Files (x86)\Exact Audio Copy\Flac\flac.exe
Дополнительные параметры : -V -8 -T "Date=%year%" -T "Genre=%genre%" %source%
TOC извлечённого CD
     Трек |   Старт  | Длительность | Начальный сектор | Конечный сектор
    ---------------------------------------------------------------------
       1  |  0:00.00 |    4:59.47   |           0      |      22471
       2  |  4:59.47 |    4:35.15   |       22472      |      43111
       3  |  9:34.62 |    4:16.40   |       43112      |      62351
       4  | 13:51.27 |    4:04.02   |       62352      |      80653
       5  | 17:55.29 |    4:26.00   |       80654      |     100603
       6  | 22:21.29 |    5:30.07   |      100604      |     125360
       7  | 27:51.36 |    5:30.42   |      125361      |     150152
       8  | 33:22.03 |    2:11.55   |      150153      |     160032
       9  | 35:33.58 |    5:44.24   |      160033      |     185856
      10  | 41:18.07 |    5:23.57   |      185857      |     210138
      11  | 46:41.64 |    5:35.20   |      210139      |     235283
Характеристики диапазона извлечения и сообщения об ошибках
Выбранный диапазон
     Имя файла C:\Users\User1\Music\David Paton-2019-The Traveller. Another Pilot Project\David Paton-2019-The Traveller. Another Pilot Project\David Paton - The Traveller. Another Pilot Project.wav
     Пиковый уровень 100.0 %
     Скорость извлечения 7.2 X
     Качество диапазона 99.9 %
     CRC теста DEEE3E1D
     CRC копии DEEE3E1D
     Копирование... OK
Ошибок не произошло
AccurateRip: сводка
Трек  1  точность не определена (достоверность 1)  [AD687891], AccurateRip вернул [A9AFEE04]  (AR v2)
Трек  2  точность не определена (достоверность 1)  [43A702AE], AccurateRip вернул [FD7DF850]  (AR v2)
Трек  3  точность не определена (достоверность 1)  [D839686E], AccurateRip вернул [379E70B1]  (AR v2)
Трек  4  точность не определена (достоверность 1)  [20AC9A61], AccurateRip вернул [92ED3880]  (AR v2)
Трек  5  точность не определена (достоверность 1)  [76286AD9], AccurateRip вернул [2362A546]  (AR v2)
Трек  6  точность не определена (достоверность 1)  [44E4B838], AccurateRip вернул [4AD6293D]  (AR v2)
Трек  7  точность не определена (достоверность 1)  [8EEDD632], AccurateRip вернул [87FCA016]  (AR v2)
Трек  8  точность не определена (достоверность 1)  [5B6CFC1C], AccurateRip вернул [22BDD1A3]  (AR v2)
Трек  9  точность не определена (достоверность 1)  [E7FB135D], AccurateRip вернул [6C131E27]  (AR v2)
Трек 10  точность не определена (достоверность 1)  [3360AA88], AccurateRip вернул [5D17D9FC]  (AR v2)
Трек 11  точность не определена (достоверность 1)  [98B710CA], AccurateRip вернул [1459FC38]  (AR v2)
Ни один трек не прошёл проверки на точность
В вашей базе может быть иной вариант штамповки диска
Конец отчёта
==== Контрольная сумма отчёта F19FC6556BA0E90B4B25CA15960C3293D44AF7F24D741D8F8AF5B84FF37FDD8F ====
Код:
REM GENRE "Art Rock"
REM DATE 2019
REM DISCID 7D0C410B
REM COMMENT "ExactAudioCopy v1.3"
PERFORMER " David Paton"
TITLE "The Traveller. Another Pilot Project"
REM COMPOSER "Eric Woolfson & Alan Parsons"
FILE "David Paton - The Traveller. Another Pilot Project.flac" WAVE
  TRACK 01 AUDIO
    TITLE "Damned If I Do"
    PERFORMER " David Paton"
    REM COMPOSER "Eric Woolfson & Alan Parsons"
    INDEX 01 00:00:00
  TRACK 02 AUDIO
    TITLE "The Cask Of Amontillado"
    PERFORMER " David Paton"
    REM COMPOSER "Eric Woolfson & Alan Parsons"
    INDEX 01 04:59:47
  TRACK 03 AUDIO
    TITLE "(The System Of) Doctor Tarr and Professor Fether"
    PERFORMER " David Paton"
    REM COMPOSER "Eric Woolfson & Alan Parsons"
    INDEX 01 09:34:62
  TRACK 04 AUDIO
    TITLE "Some Other Time"
    PERFORMER " David Paton"
    REM COMPOSER "Eric Woolfson & Alan Parsons"
    INDEX 01 13:51:27
  TRACK 05 AUDIO
    TITLE "I'd Rather Be A Man"
    PERFORMER " David Paton"
    REM COMPOSER "Eric Woolfson & Alan Parsons"
    INDEX 01 17:55:29
  TRACK 06 AUDIO
    TITLE "If I Could Change Your Mind"
    PERFORMER " David Paton"
    REM COMPOSER "Eric Woolfson & Alan Parsons"
    INDEX 01 22:21:29
  TRACK 07 AUDIO
    TITLE "Days Are Numbers (The Traveller)"
    PERFORMER " David Paton"
    REM COMPOSER "Eric Woolfson & Alan Parsons"
    INDEX 01 27:51:36
  TRACK 08 AUDIO
    TITLE "Gemini"
    PERFORMER " David Paton"
    REM COMPOSER "Eric Woolfson & Alan Parsons"
    INDEX 01 33:22:03
  TRACK 09 AUDIO
    TITLE "Light Of The World"
    PERFORMER " David Paton"
    REM COMPOSER "Eric Woolfson & Alan Parsons"
    INDEX 01 35:33:58
  TRACK 10 AUDIO
    TITLE "Separate Lives"
    PERFORMER " David Paton"
    REM COMPOSER "Eric Woolfson & Alan Parsons"
    INDEX 01 41:18:07
  TRACK 11 AUDIO
    TITLE "The Same Old Sun"
    PERFORMER " David Paton"
    REM COMPOSER "Eric Woolfson & Alan Parsons"
    INDEX 01 46:41:64
Код:
Этот альбом я проверил аудиочекером дважды (из любопытства).
Ниже приведены обе версии. Первая - проверка образа диска, вторая - проверка потрековой копии .wav. Мой вывод уже во второй раз такой: данные аудиочекера не нужно возводить в культ.
.
.
AUDIOCHECKER v2.0 beta (build 457) - by Dester - opdester@freemail.hu
~~~~~~~~~~~~~~~~~~~~~~~~~~~~~~~~~~
Начато: понедельник, 30. 03. 2020. - 22:12.26
Найдено файлов: 1
1 -===- G:\_Альбомы-раздачи lossless\David Paton-2019-The Traveller. Another Pilot Project\David Paton - The Traveller. Another Pilot Project.flac
  Извлечение успешно выполнено
  Заключение: этот трек - CDDA с вероятностью 99%
  Временный файл удалён.
Завершено: понедельник, 30. 03. 2020. - 22:16.57 (Время операции: 0:04.30)
====================================================
AUDIOCHECKER v2.0 beta (build 457) - by Dester - opdester@freemail.hu
~~~~~~~~~~~~~~~~~~~~~~~~~~~~~~~~~~
Начато: воскресенье, 29. 03. 2020. - 19:09.25
Найдено файлов: 11
01 -===- D:\_Альбомы-раздачи lossless\_подготовка\David Paton-2019-The Traveller. Another Pilot Project\tracks\01.Damned If I Do.wav
  Заключение: этот трек - CDDA с вероятностью 99%
02 -===- D:\_Альбомы-раздачи lossless\_подготовка\David Paton-2019-The Traveller. Another Pilot Project\tracks\02.The Cask Of Amontillado.wav
  Заключение: этот трек - CDDA с вероятностью 99%
03 -===- D:\_Альбомы-раздачи lossless\_подготовка\David Paton-2019-The Traveller. Another Pilot Project\tracks\03.(The System Of) Doctor Tarr and Professor Fether.wav
  Заключение: этот трек - CDDA с вероятностью 100%
04 -===- D:\_Альбомы-раздачи lossless\_подготовка\David Paton-2019-The Traveller. Another Pilot Project\tracks\04.Some Other Time.wav
  Заключение: этот трек - CDDA с вероятностью 100%
05 -===- D:\_Альбомы-раздачи lossless\_подготовка\David Paton-2019-The Traveller. Another Pilot Project\tracks\05.I'd Rather Be A Man.wav
  Заключение: этот трек - CDDA с вероятностью 100%
06 -===- D:\_Альбомы-раздачи lossless\_подготовка\David Paton-2019-The Traveller. Another Pilot Project\tracks\06.If I Could Change Your Mind.wav
  Заключение: этот трек - CDDA с вероятностью 100%
07 -===- D:\_Альбомы-раздачи lossless\_подготовка\David Paton-2019-The Traveller. Another Pilot Project\tracks\07.Days Are Numbers (The Traveller).wav
  Заключение: этот трек - CDDA с вероятностью 100%
08 -===- D:\_Альбомы-раздачи lossless\_подготовка\David Paton-2019-The Traveller. Another Pilot Project\tracks\08.Gemini.wav
  Заключение: этот трек - CDDA с вероятностью 100%
09 -===- D:\_Альбомы-раздачи lossless\_подготовка\David Paton-2019-The Traveller. Another Pilot Project\tracks\09.Light Of The World.wav
  Заключение: этот трек - CDDA с вероятностью 100%
10 -===- D:\_Альбомы-раздачи lossless\_подготовка\David Paton-2019-The Traveller. Another Pilot Project\tracks\10.Separate Lives.wav
  Заключение: этот трек - CDDA с вероятностью 100%
11 -===- D:\_Альбомы-раздачи lossless\_подготовка\David Paton-2019-The Traveller. Another Pilot Project\tracks\11.The Same Old Sun.wav
  Заключение: этот трек - CDDA с вероятностью 100%
Этот альбом (tracks) - CDDA с вероятностью 99,82%
Завершено: воскресенье, 29. 03. 2020. - 19:13.39 (Время операции: 0:04.14)
Торрент-файл перезалит 01.04.2020 около 22-30 (на этот момент скачан 124 раза).
Исправлен дефект на 1 треке.
Правила, инструкции, FAQ!!!
Торрент  Добавлен [28 апр 2020, 19:53] Скачать торрент Магнет ссылка
Скачать торрент
[ Размер 14.38 КБ / Просмотров 14 ]

Статус
Проверен 
 
Размер  336.49 МБ
Приватный: Нет (DHT включён)
.torrent скачан  0
 


     Отправить личное сообщение
   
Страница 1 из 1
Показать сообщения за:  Поле сортировки  
Начать новую тему Ответить на тему


Сейчас этот форум просматривают: нет зарегистрированных пользователей и гости: 0


Вы не можете начинать темы
Вы не можете отвечать на сообщения
Вы не можете редактировать свои сообщения
Вы не можете удалять свои сообщения
Вы не можете добавлять вложения

Перейти:  
cron