Начать новую тему Ответить на тему
Статистика раздачи
Размер: 112.49 МБ | Добавлен: 26 мар 2019, 20:32 | Скачали: 2
Сидеров: 4  [0 байт/сек]    Личеров: 0  [0 байт/сек]
Пред. тема | След. тема 

Автор
Сообщение

СообщениеДобавлено: 26 мар 2019, 20:32 

Ответить с цитатой 

Smokie feat. R.C.Brown - Living Next Door To Alice 1995(CDWAG245)
Жанр: Soft Rock-PopRock
Год издания диска: 1995
Издатель (лейбл): WAG Records CDWAG 245
Страна: UK
Аудио кодек: APE (*.ape)
Тип рипа: image+.cue
Битрейт аудио: lossless
Продолжительность: 00:22:52
Источник (релизер): moole by attax
Наличие сканов в содержимом раздачи: да
Produced by Smokie
Written by Chinn/Chapman
Published by Stame Music Ltd./Chinnichap Publishing Ltd.
Marketed and Distributed by The Total Record Company
©1995 WAG Records.
#777#777
Треклист:
1. Living Next Door To Alice
Original
2. Living Next Door To Alice (Who The F**K Is Alice?)
Unbleeped *Featuring Roy Chubby Brown
3. Living Next Door To Alice (Who The F**K Is Alice?)
Unbleeped *Recorded Live In Ireland
4. Living Next Door To Alice (Who The F**K Is Alice?)
Unbleeped *Featuring Roy Chubby Brown
5. Living Next Door To Alice (Who The F**K Is Alice?)
Bleeped *Recorded Live In Ireland
6. Living Next Door To Alice (Who The F**K Is Alice?)
Bleeped *Featuring Roy Chubby Brown
Код:
Отчёт EAC об извлечении, выполненном 12. июня 2010, 15:34 для диска:
Smokie Feat Roy Chubby Brown / Living Next Door To Alice
Дисковод: ASUS    DRW-1608P   Adapter: 0  ID: 0
Режим чтения: Достоверный (C2: нет, Точный поток: да, Отключение кэша: да)
Коррекция смещения при чтении: 48
Способность читать области Lead-in и Lead-out : Нет
Выходной формат: Внутренние WAV-операции
                     44.100 Гц; 16 бит; стерео
Другие параметры:
    Заполнение пропущенных сэмплов тишиной : Да
    Удаление блоков с тишиной в начале и конце : Нет
    Установленный внешний ASPI-интерфейс
Характеристики диапазона извлечения и сообщения об ошибках
Выбранный диапазон
     Имя файла D:\Music\Сегодня+\CoverZ\UPLOADz\Smok\Smokie Feat Roy Chubby Brown - Living Next Door To Alice.wav
     Пиковый уровень 97.7 %
     Качество диапазона 100.0 %
     CRC 37E8C562
     Копирование... OK
Ошибок не произошло
Конец отчёта
Код:
REM GENRE Comedy
REM DATE 1995
REM DISCID 3F055A06
REM COMMENT "ExactAudioCopy v0.95b4"
PERFORMER "Smokie Feat Roy Chubby Brown"
TITLE "Living Next Door To Alice"
FILE "Smokie Feat Roy Chubby Brown - Living Next Door To Alice.ape" WAVE
  TRACK 01 AUDIO
    TITLE "Living Next Door To Alice (Original)"
    PERFORMER "Smokie Feat Roy Chubby Brown"
    INDEX 00 00:00:00
    INDEX 01 00:00:32
  TRACK 02 AUDIO
    TITLE "Living Next Door To Alice (Who The F**K Is Alice?) (Unbleeped) Feat. Roy Chub..."
    PERFORMER "Smokie Feat Roy Chubby Brown"
    INDEX 00 03:36:40
    INDEX 01 03:39:02
  TRACK 03 AUDIO
    TITLE "Living Next Door To Alice (Who The F**k Is Alice?) (Unbleeped) Recorded Live ..."
    PERFORMER "Smokie Feat Roy Chubby Brown"
    INDEX 00 07:26:50
    INDEX 01 07:29:12
  TRACK 04 AUDIO
    TITLE "Living Next Door To Alice (Who The Fuck Is Alice?) (Unbleeped) Feat. Roy Chub..."
    PERFORMER "Smokie Feat Roy Chubby Brown"
    INDEX 00 11:21:65
    INDEX 01 11:24:22
  TRACK 05 AUDIO
    TITLE "Living Next Door To Alice (Who The F**K Is Alice?) (Bleeped) Recorded Live In..."
    PERFORMER "Smokie Feat Roy Chubby Brown"
    INDEX 00 15:04:30
    INDEX 01 15:06:67
  TRACK 06 AUDIO
    TITLE "Living Next Door To Alice (Who The F**k Is Alice?) (Bleeped) Feat. Roy Chubby..."
    PERFORMER "Smokie Feat Roy Chubby Brown"
    INDEX 00 18:58:67
    INDEX 01 19:01:25
Код:
AUDIOCHECKER v2.0 beta (build 457) - by Dester - opdester@freemail.hu
~~~~~~~~~~~~~~~~~~~~~~~~~~~~~~~~~~
Начато: пятница, 07. 01. 2011. - 17:10.40
Найдено файлов: 1
1 -===- J:\music\Smok\Smokie Feat Roy Chubby Brown - Living Next Door To Alice.ape
  Извлечение успешно выполнено
  Заключение: этот трек - CDDA с вероятностью 100%
  Временный файл удалён.
Завершено: пятница, 07. 01. 2011. - 17:21.21 (Время операции: 0:10.41)
Данное издание содержит все официально изданные версии мега-шлягера.
В скором времени, после того, как была записана эта песня, ведущий вокалист группы трагически погиб в автокатастрофе гастрольного автобуса.
Ребята пережив такую утрату, решили исправить положение и перезаписали этот ХИТ,
добавив к основному названию ещё слова (Who The F**K Is Alice?), а вместо Бартона
записали стилизацию речи известного британского актёра речевого жанра
Роя Чабби Брауна.
Получилось ещё более ХИТОВО!
!!! Часть денег от данной песни пошли на пожертвования для первой жены Бартона !!!
Line Up:
* Alan Barton — lead vocals, guitar
* Alan Silson — lead guitar, vocals
* Terry Uttley — bass guitar, vocals
* Steve Pinnell — drums, percussion
* Martin Bullard — keyboards
Guest Comic Star:
* Roy Chubby Brown — Barton's stylized vocals speech
Правила, инструкции, FAQ!!!
Торрент  Добавлен [26 мар 2019, 20:32] Скачать торрент Магнет ссылка
Скачать торрент
[ Размер 18.67 КБ / Просмотров 4 ]

Статус
Проверен 
 
Размер  112.49 МБ
Приватный: Нет (DHT включён)
.torrent скачан  2
 


     Отправить личное сообщение
   
Страница 1 из 1
Показать сообщения за:  Поле сортировки  
Начать новую тему Ответить на тему


Сейчас этот форум просматривают: нет зарегистрированных пользователей и гости: 0


Вы не можете начинать темы
Вы не можете отвечать на сообщения
Вы не можете редактировать свои сообщения
Вы не можете удалять свои сообщения
Вы не можете добавлять вложения

Перейти:  
cron