Начать новую тему Ответить на тему
Статистика раздачи
Размер: 202.77 МБ | Добавлен: 26 мар 2019, 20:54 | Скачали: 0
Сидеров: 0  [0 байт/сек]    Личеров: 0  [0 байт/сек]
Пред. тема | След. тема 

Автор
Сообщение

СообщениеДобавлено: 26 мар 2019, 20:54 

Ответить с цитатой 

Seals & Crofts - One on One
Жанр: Soft Rock, Pop Rock
Страна-производитель диска: USA
Год издания диска: 2007
Издатель (лейбл): Wounded Bird Records
Номер по каталогу: WOU 3076
Страна: USA
Аудио кодек: FLAC (*.flac)
Тип рипа: tracks+.cue
Битрейт аудио: lossless
Продолжительность: 00:34:39
Источник (релизер): Rob
Наличие сканов в содержимом раздачи:
Треклист:
01. The Love Theme From One On One (My Fair Share) 02:44
02. This Day Belongs To Me 02:47
03. Janet'sTheme 03:06
04. John Wayne 02:42
05. Picnic 02:15
06. Flyin' 02:29
07. Reflections 01:37
08. Love Conquers All 02:44
09. It'll Be All Right 02:14
10. Hustle 02:30
11. Time Out 03:09
12. The Party 02:19
13. The Basketball Game 01:43
14. This Day Belongs To Me (Reprise) 02:20
Код:
Exact Audio Copy V1.0 beta 1 from 15. November 2010
EAC extraction logfile from 8. November 2012, 23:05
Seals & Crofts / One On One
Used drive  : ATAPI   iHAS224   Y   Adapter: 2  ID: 0
Read mode               : Secure
Utilize accurate stream : Yes
Defeat audio cache      : Yes
Make use of C2 pointers : No
Read offset correction                      : 48
Overread into Lead-In and Lead-Out          : No
Fill up missing offset samples with silence : Yes
Delete leading and trailing silent blocks   : No
Null samples used in CRC calculations       : Yes
Used interface                              : Native Win32 interface for Win NT & 2000
Gap handling                                : Appended to previous track
Used output format : Internal WAV Routines
Sample format      : 44.100 Hz; 16 Bit; Stereo
TOC of the extracted CD
     Track |   Start  |  Length  | Start sector | End sector
    ---------------------------------------------------------
        1  |  0:00.00 |  2:44.10 |         0    |    12309
        2  |  2:44.10 |  2:47.25 |     12310    |    24859
        3  |  5:31.35 |  3:05.40 |     24860    |    38774
        4  |  8:37.00 |  2:41.41 |     38775    |    50890
        5  | 11:18.41 |  2:15.07 |     50891    |    61022
        6  | 13:33.48 |  2:28.54 |     61023    |    72176
        7  | 16:02.27 |  1:36.66 |     72177    |    79442
        8  | 17:39.18 |  2:44.20 |     79443    |    91762
        9  | 20:23.38 |  2:13.42 |     91763    |   101779
       10  | 22:37.05 |  2:29.39 |    101780    |   112993
       11  | 25:06.44 |  3:09.37 |    112994    |   127205
       12  | 28:16.06 |  2:19.12 |    127206    |   137642
       13  | 30:35.18 |  1:42.52 |    137643    |   145344
       14  | 32:17.70 |  2:19.61 |    145345    |   155830
Track  1
     Filename C:\Users\Rob\Desktop\Uploads\OST - Seals & Crofts - One On One (1977) [FLAC]\01 - The Love Theme From One On One (My Fair Share).wav
     Pre-gap length  0:00:02.00
     Peak level 83.1 %
     Extraction speed 2.2 X
     Track quality 100.0 %
     Test CRC 3EF089C8
     Copy CRC 3EF089C8
     Accurately ripped (confidence 3)  [BA505A2D]
     Copy OK
Track  2
     Filename C:\Users\Rob\Desktop\Uploads\OST - Seals & Crofts - One On One (1977) [FLAC]\02 - This Day Belongs To Me.wav
     Peak level 97.2 %
     Extraction speed 2.4 X
     Track quality 100.0 %
     Test CRC DD49C325
     Copy CRC DD49C325
     Accurately ripped (confidence 3)  [1D4BC3E4]
     Copy OK
Track  3
     Filename C:\Users\Rob\Desktop\Uploads\OST - Seals & Crofts - One On One (1977) [FLAC]\03 - Janet'sTheme.wav
     Peak level 97.2 %
     Extraction speed 2.6 X
     Track quality 100.0 %
     Test CRC FACA6456
     Copy CRC FACA6456
     Accurately ripped (confidence 3)  [9B1C7A0B]
     Copy OK
Track  4
     Filename C:\Users\Rob\Desktop\Uploads\OST - Seals & Crofts - One On One (1977) [FLAC]\04 - John Wayne.wav
     Peak level 97.2 %
     Extraction speed 2.7 X
     Track quality 100.0 %
     Test CRC CD6C71CE
     Copy CRC CD6C71CE
     Accurately ripped (confidence 3)  [16591CAA]
     Copy OK
Track  5
     Filename C:\Users\Rob\Desktop\Uploads\OST - Seals & Crofts - One On One (1977) [FLAC]\05 - Picnic.wav
     Peak level 97.2 %
     Extraction speed 2.7 X
     Track quality 100.0 %
     Test CRC BA64A79B
     Copy CRC BA64A79B
     Accurately ripped (confidence 3)  [A1CE9D33]
     Copy OK
Track  6
     Filename C:\Users\Rob\Desktop\Uploads\OST - Seals & Crofts - One On One (1977) [FLAC]\06 - Flyin'.wav
     Peak level 97.2 %
     Extraction speed 2.8 X
     Track quality 100.0 %
     Test CRC F8DA49D7
     Copy CRC F8DA49D7
     Accurately ripped (confidence 3)  [04DBEC3D]
     Copy OK
Track  7
     Filename C:\Users\Rob\Desktop\Uploads\OST - Seals & Crofts - One On One (1977) [FLAC]\07 - Reflections.wav
     Peak level 48.6 %
     Extraction speed 2.7 X
     Track quality 100.0 %
     Test CRC 08B22FCB
     Copy CRC 08B22FCB
     Accurately ripped (confidence 3)  [27B1FEC4]
     Copy OK
Track  8
     Filename C:\Users\Rob\Desktop\Uploads\OST - Seals & Crofts - One On One (1977) [FLAC]\08 - Love Conquers All.wav
     Peak level 97.2 %
     Extraction speed 3.1 X
     Track quality 100.0 %
     Test CRC 7B9A0CDA
     Copy CRC 7B9A0CDA
     Accurately ripped (confidence 3)  [EBE3344C]
     Copy OK
Track  9
     Filename C:\Users\Rob\Desktop\Uploads\OST - Seals & Crofts - One On One (1977) [FLAC]\09 - It'll Be All Right.wav
     Peak level 74.9 %
     Extraction speed 3.1 X
     Track quality 100.0 %
     Test CRC F89510AE
     Copy CRC F89510AE
     Accurately ripped (confidence 3)  [D9029773]
     Copy OK
Track 10
     Filename C:\Users\Rob\Desktop\Uploads\OST - Seals & Crofts - One On One (1977) [FLAC]\10 - Hustle.wav
     Peak level 97.2 %
     Extraction speed 3.3 X
     Track quality 100.0 %
     Test CRC AC5907E6
     Copy CRC AC5907E6
     Accurately ripped (confidence 3)  [6E45AD71]
     Copy OK
Track 11
     Filename C:\Users\Rob\Desktop\Uploads\OST - Seals & Crofts - One On One (1977) [FLAC]\11 - Time Out.wav
     Peak level 86.0 %
     Extraction speed 3.5 X
     Track quality 100.0 %
     Test CRC 88D077EB
     Copy CRC 88D077EB
     Accurately ripped (confidence 3)  [5D9218E7]
     Copy OK
Track 12
     Filename C:\Users\Rob\Desktop\Uploads\OST - Seals & Crofts - One On One (1977) [FLAC]\12 - The Party.wav
     Peak level 97.2 %
     Extraction speed 2.8 X
     Track quality 99.9 %
     Test CRC 1FAD2715
     Copy CRC 1FAD2715
     Accurately ripped (confidence 3)  [7DF963ED]
     Copy OK
Track 13
     Filename C:\Users\Rob\Desktop\Uploads\OST - Seals & Crofts - One On One (1977) [FLAC]\13 - The Basketball Game.wav
     Peak level 91.7 %
     Extraction speed 3.3 X
     Track quality 100.0 %
     Test CRC F0316F37
     Copy CRC F0316F37
     Accurately ripped (confidence 3)  [888FBC74]
     Copy OK
Track 14
     Filename C:\Users\Rob\Desktop\Uploads\OST - Seals & Crofts - One On One (1977) [FLAC]\14 - This Day Belongs To Me (Reprise).wav
     Peak level 97.2 %
     Extraction speed 3.0 X
     Track quality 99.9 %
     Test CRC 9AF17488
     Copy CRC 9AF17488
     Accurately ripped (confidence 3)  [EBCE121D]
     Copy OK
All tracks accurately ripped
No errors occurred
End of status report
==== Log checksum 9E43CF7F7E0895E61B268C87122468EFF92A0446976E815788E30045EFA9FB66 ====
Код:
REM GENRE Rock
REM DATE 1977
REM DISCID C9081D0E
REM COMMENT "ExactAudioCopy v1.0b1"
PERFORMER "Seals & Crofts"
TITLE "One On One"
FILE "01 - The Love Theme From One On One (My Fair Share).wav" WAVE
  TRACK 01 AUDIO
    TITLE "The Love Theme From One On One (My Fair Share)"
    PERFORMER "Seals & Crofts"
    INDEX 01 00:00:00
FILE "02 - This Day Belongs To Me.wav" WAVE
  TRACK 02 AUDIO
    TITLE "This Day Belongs To Me"
    PERFORMER "Seals & Crofts"
    INDEX 01 00:00:00
FILE "03 - Janet'sTheme.wav" WAVE
  TRACK 03 AUDIO
    TITLE "Janet'sTheme"
    PERFORMER "Seals & Crofts"
    INDEX 01 00:00:00
FILE "04 - John Wayne.wav" WAVE
  TRACK 04 AUDIO
    TITLE "John Wayne"
    PERFORMER "Seals & Crofts"
    INDEX 01 00:00:00
FILE "05 - Picnic.wav" WAVE
  TRACK 05 AUDIO
    TITLE "Picnic"
    PERFORMER "Seals & Crofts"
    INDEX 01 00:00:00
FILE "06 - Flyin'.wav" WAVE
  TRACK 06 AUDIO
    TITLE "Flyin'"
    PERFORMER "Seals & Crofts"
    INDEX 01 00:00:00
FILE "07 - Reflections.wav" WAVE
  TRACK 07 AUDIO
    TITLE "Reflections"
    PERFORMER "Seals & Crofts"
    INDEX 01 00:00:00
FILE "08 - Love Conquers All.wav" WAVE
  TRACK 08 AUDIO
    TITLE "Love Conquers All"
    PERFORMER "Seals & Crofts"
    INDEX 01 00:00:00
FILE "09 - It'll Be All Right.wav" WAVE
  TRACK 09 AUDIO
    TITLE "It'll Be All Right"
    PERFORMER "Seals & Crofts"
    INDEX 01 00:00:00
FILE "10 - Hustle.wav" WAVE
  TRACK 10 AUDIO
    TITLE "Hustle"
    PERFORMER "Seals & Crofts"
    INDEX 01 00:00:00
FILE "11 - Time Out.wav" WAVE
  TRACK 11 AUDIO
    TITLE "Time Out"
    PERFORMER "Seals & Crofts"
    INDEX 01 00:00:00
FILE "12 - The Party.wav" WAVE
  TRACK 12 AUDIO
    TITLE "The Party"
    PERFORMER "Seals & Crofts"
    INDEX 01 00:00:00
FILE "13 - The Basketball Game.wav" WAVE
  TRACK 13 AUDIO
    TITLE "The Basketball Game"
    PERFORMER "Seals & Crofts"
    INDEX 01 00:00:00
FILE "14 - This Day Belongs To Me (Reprise).wav" WAVE
  TRACK 14 AUDIO
    TITLE "This Day Belongs To Me (Reprise)"
    PERFORMER "Seals & Crofts"
    INDEX 01 00:00:00
Код:
-----------------------
DON'T MODIFY THIS FILE
-----------------------
PERFORMER: auCDtect Task Manager, ver. 1.5.1RC4 build 1.5.1.5
Copyright (c) 2008-2010 y-soft. All rights reserved
[url=http://y-soft.org]http://y-soft.org[/url]
ANALYZER: auCDtect: CD records authenticity detector, version 0.8.2
Copyright (c) 2004 Oleg Berngardt. All rights reserved.
Copyright (c) 2004 Alexander Djourik. All rights reserved.
FILE: 14 - This Day Belongs To Me (Reprise).flac
  Size: 14969939 Hash: 2A4839D236D2BFAC4ABF7674F985C6DF Accuracy: -m8
  Conclusion: CDDA 100%
  Signature: 14FBCDAB7150C4C331B464108B711D4707D010DB
FILE: 13 - The Basketball Game.flac
  Size: 10574665 Hash: B6AA2EF305790D79668344FE15A36A08 Accuracy: -m8
  Conclusion: CDDA 100%
  Signature: 92B7793EE76460C27D03E1D77AEC1DF90DD373B1
FILE: 12 - The Party.flac
  Size: 16423312 Hash: C6B7FD6E63771B0BFB03B4870330C579 Accuracy: -m8
  Conclusion: CDDA 100%
  Signature: A7A544820EEBA6BC59C9A678BF62811CF0C81ECD
FILE: 11 - Time Out.flac
  Size: 18262209 Hash: 1C9F84CD9833E6BB01B90902F5FD0756 Accuracy: -m8
  Conclusion: CDDA 100%
  Signature: D3F52E63C41DAADA45A05F4E89F3A5880A0FD3C9
FILE: 10 - Hustle.flac
  Size: 14909077 Hash: AA787E66C2B3B2A65374241B3FD54D2D Accuracy: -m8
  Conclusion: CDDA 100%
  Signature: 03BCF4012E9AF6A6EA97F034EEB97DC3B0D38AB8
FILE: 09 - It'll Be All Right.flac
  Size: 10824399 Hash: 2B1704BE38993478E67712B0E8D7C6F3 Accuracy: -m8
  Conclusion: CDDA 99%
  Signature: 36159E0C7907DEBC9BFCAAEC65BACDBC84744717
FILE: 08 - Love Conquers All.flac
  Size: 17856478 Hash: 4E1935BA174FE2933DD7B8138FA0A7E1 Accuracy: -m8
  Conclusion: CDDA 100%
  Signature: 0E6D3178E5543A24EF84F6341F75C7C9FD820810
FILE: 07 - Reflections.flac
  Size: 6457608 Hash: E9438CA0DB21824CCE024433C59CC97F Accuracy: -m8
  Conclusion: CDDA 100%
  Signature: AAD90AAEF34781782490246A14DD5574BFEE0F44
FILE: 06 - Flyin'.flac
  Size: 15111014 Hash: 354039E42F5EBF06891BAB59AD391EC8 Accuracy: -m8
  Conclusion: CDDA 100%
  Signature: AA5489B7A561D1530BF96C34FF58C98BA9843349
FILE: 05 - Picnic.flac
  Size: 10878717 Hash: C24445468AC9AE339096F1BF8D04EDB3 Accuracy: -m8
  Conclusion: CDDA 100%
  Signature: 80DD0E74D78889248AE64D98EC26F65A2A1E3425
FILE: 04 - John Wayne.flac
  Size: 17613593 Hash: 06252092EE691A2DF72EE17B34518523 Accuracy: -m8
  Conclusion: CDDA 100%
  Signature: 2D57101EE1543BBCD6C278BBA413C4227CB4D645
FILE: 03 - Janet'sTheme.flac
  Size: 18369934 Hash: 757D638AD46EC706FB8ED89B8E1F0A7B Accuracy: -m8
  Conclusion: CDDA 100%
  Signature: 478C70760D695845A91E33B79C9136E848B97486
FILE: 02 - This Day Belongs To Me.flac
  Size: 16958538 Hash: 6CCE0B18497F88E38D6E4F08A7FB0EBD Accuracy: -m8
  Conclusion: CDDA 99%
  Signature: 1971EB863E11039B5D18D5767EB3A317CF0BC082
FILE: 01 - The Love Theme From One On One (My Fair Share).flac
  Size: 16736442 Hash: DC2C3E550A1DD9EE61A7F5F7C87EB885 Accuracy: -m8
  Conclusion: CDDA 100%
  Signature: CA6D8FC737BC0655DEE1B110173F0C1BC017D5CC
Доп. информация
Seals & Crofts - дуэт из Los Angeles, California, USA, состоящий из Seals and Crofts (James Seals, 17 октября 1941 г.) и Dash Crofts (Darrell Crofts, 14 августа, 1940). Софт-рок дуэт был одним из самых успешных музыкальных проектов 1970-х годов. Они лучше всего известны своими хитами " Summer Breeze ","Diamond Girl "и" Get Closer ". Дуэт расформирован в 1980 году. Они воссоединились кратко в 1991-1992 годах и снова в 2004 году, когда они выпустили свой последний альбом Traces . One on One - саундтрек к одноименному фильму, One on One, в главной роли Робби Бенсон. Музыка была написана полностью Чарльзом Фоксом, с лирикой Пола Уильямса . Сингл "My Fair Share (Love Theme from One on One)" достиг # 11 в AC чартах и № 28 Pop в конце 1977 года.
Правила, инструкции, FAQ!!!
Торрент  Добавлен [26 мар 2019, 20:54] Скачать торрент Магнет ссылка
Скачать торрент
[ Размер 17.58 КБ / Просмотров 3 ]

Статус
Проверен 
 
Размер  202.77 МБ
Приватный: Нет (DHT включён)
.torrent скачан  0
 


     Отправить личное сообщение
   
Страница 1 из 1
Показать сообщения за:  Поле сортировки  
Начать новую тему Ответить на тему


Сейчас этот форум просматривают: нет зарегистрированных пользователей и гости: 0


Вы не можете начинать темы
Вы не можете отвечать на сообщения
Вы не можете редактировать свои сообщения
Вы не можете удалять свои сообщения
Вы не можете добавлять вложения

Перейти:  
cron