Начать новую тему Ответить на тему
Статистика раздачи
Размер: 283.46 МБ | Добавлен: 26 мар 2019, 20:01 | Скачали: 0
Сидеров: 1  [0 байт/сек]    Личеров: 0  [0 байт/сек]
Пред. тема | След. тема 

Автор
Сообщение

СообщениеДобавлено: 26 мар 2019, 20:01 

Ответить с цитатой 

Jeff Larson / Swimming In The Make Believe
Жанр: soft rock, pop rock
Носитель: CD
Страна-производитель диска (релиза): USA
Год издания: 2006
Издатель (лейбл): NCompass Music
Номер по каталогу: NN 07 0522
Страна исполнителя (группы): USA, Ca
Аудиокодек: FLAC (*.flac)
Тип рипа: image+.cue
Битрейт аудио: lossless
Продолжительность: 00:40:43
Источник (релизер): собственный рип
Наличие сканов в содержимом раздачи: да
Треклист:
1. You Remind Me of the Sun
2. Play Through
3. Faraway Girl
4. Southaways
5. I'll Be Gone
6. Summer Fades
7. Hand Me Down
8. Something of Magritte
9. Under the Weather
10. Rain on Me
11. She Has to Know by Now
12. Leaving California
13. When Your Christmas Fades
Советую поклонникам AMERICA, которые принимали здесь участие (и не только они!)
Код:
Exact Audio Copy V1.1 from 23. June 2015
Отчёт EAC об извлечении, выполненном 20. июля 2016, 19:32
Jeff larson / Swimming In The Make Believe
Дисковод: ASUS    DRW-24B3ST   Adapter: 0  ID: 0
Режим чтения                 : Достоверность
Использование точного потока : Да
Отключение кэша аудио        : Да
Использование указателей C2  : Нет
Коррекция смещения при чтении                     : 6
Способность читать области Lead-in и Lead-out     : Нет
Заполнение пропущенных сэмплов тишиной            : Да
Удаление блоков с тишиной в начале и конце        : Нет
При вычислениях CRC использовались нулевые сэмплы : Да
Интерфейс                                         : Установленный внешний ASPI-интерфейс
Выходной формат          : Пользовательский кодировщик
Выбранный битрейт        : 1024 kBit/s
Качество                 : Высокий
Добавление ID3-тега      : Нет
Утилита сжатия           : C:\Program Files (x86)\Exact Audio Copy\FLAC\FLAC.EXE
Дополнительные параметры : -6 -V -T "ARTIST=%artist%" -T "TITLE=%title%" -T "ALBUM=%albumtitle%" -T "DATE=%year%" -T "TRACKNUMBER=%tracknr%" -T "GENRE=%genre%" -T "COMMENT=%comment%" -T "BAND=%albuminterpret%" -T "ALBUMARTIST=%albuminterpret%" -T "COMPOSER=%composer%" %haslyrics%--tag-from-file=LYRICS="%lyricsfile%"%haslyrics% -T "DISCNUMBER=%cdnumber%" -T "TOTALDISCS=%totalcds%" -T "TOTALTRACKS=%numtracks%" %hascover%--picture="%coverfile%"%hascover% %source% -o %dest%
TOC извлечённого CD
     Трек |   Старт  | Длительность | Начальный сектор | Конечный сектор
    ---------------------------------------------------------------------
       1  |  0:00.00 |    2:50.13   |           0      |      12762
       2  |  2:50.13 |    3:11.19   |       12763      |      27106
       3  |  6:01.32 |    3:21.24   |       27107      |      42205
       4  |  9:22.56 |    3:02.71   |       42206      |      55926
       5  | 12:25.52 |    4:42.11   |       55927      |      77087
       6  | 17:07.63 |    2:53.20   |       77088      |      90082
       7  | 20:01.08 |    3:31.42   |       90083      |     105949
       8  | 23:32.50 |    0:44.12   |      105950      |     109261
       9  | 24:16.62 |    3:38.05   |      109262      |     125616
      10  | 27:54.67 |    3:00.47   |      125617      |     139163
      11  | 30:55.39 |    2:51.12   |      139164      |     152000
      12  | 33:46.51 |    4:02.01   |      152001      |     170151
      13  | 37:48.52 |    2:53.63   |      170152      |     183189
Характеристики диапазона извлечения и сообщения об ошибках
Выбранный диапазон
     Имя файла C:\Torrents - my\Jeff Larson - 2006 - Swimming In The Make Believe\Jeff larson - Swimming In The Make Believe.wav
     Пиковый уровень 97.7 %
     Скорость извлечения 8.1 X
     Качество диапазона 99.9 %
     CRC теста 011B66C3
     CRC копии 011B66C3
     Копирование... OK
Ошибок не произошло
Конец отчёта
==== Контрольная сумма отчёта E254DBC24FDF7A3766FC3A9AEF2FF03B457F008615D0689E50F93FE5E3646EF0 ====
back vocals: Gerry Beckley, Dewey Bunnell (America), Robert Lamm (Chicago)
Правила, инструкции, FAQ!!!
Торрент  Добавлен [26 мар 2019, 20:01] Скачать торрент Магнет ссылка
Скачать торрент
[ Размер 11.92 КБ / Просмотров 2 ]

Статус
Проверен 
 
Размер  283.46 МБ
Приватный: Нет (DHT включён)
.torrent скачан  0
 


     Отправить личное сообщение
   
Страница 1 из 1
Показать сообщения за:  Поле сортировки  
Начать новую тему Ответить на тему


Сейчас этот форум просматривают: нет зарегистрированных пользователей и гости: 0


Вы не можете начинать темы
Вы не можете отвечать на сообщения
Вы не можете редактировать свои сообщения
Вы не можете удалять свои сообщения
Вы не можете добавлять вложения

Перейти:  
cron