Начать новую тему Ответить на тему
Статистика раздачи
Размер: 343.84 МБ | Добавлен: 26 мар 2019, 20:00 | Скачали: 0
Сидеров: 1  [0 байт/сек]    Личеров: 0  [0 байт/сек]
Пред. тема | След. тема 

Автор
Сообщение

СообщениеДобавлено: 26 мар 2019, 20:00 

Ответить с цитатой 

Jeff Larson / Fragile Sunrise
Жанр: soft rock, pop rock
Носитель: CD
Страна-производитель диска (релиза): France
Год издания: 2002
Издатель (лейбл): Magic rec
Номер по каталогу: 3930255
Страна исполнителя (группы): USA
Аудиокодек: FLAC (*.flac)
Тип рипа: image+.cue
Битрейт аудио: lossless
Продолжительность: 00:51:59
Источник (релизер): собственный рип
Наличие сканов в содержимом раздачи: да
Треклист:
1 Place Where I Belong
2 Watershed Girl
3 Norman
4 Faraway Mary
5 Halfmoon Bay
6 Another Slight Addiction
7 Changing Colors
8 Sparkle To It
9 Heavy Rain
10 Some Ancient Memory
11 Fields Of May
12 Norman : Producers Commentary
13 Rocket
14 Heavy Rain-instrumental
15 Place : Harmony
Код:
Exact Audio Copy V1.1 from 23. June 2015
Отчёт EAC об извлечении, выполненном 3. февраля 2016, 23:54
Jeff Larson / Fragile Sunrise
Дисковод: ASUS    DRW-24B3ST   Adapter: 0  ID: 0
Режим чтения                 : Достоверность
Использование точного потока : Да
Отключение кэша аудио        : Да
Использование указателей C2  : Нет
Коррекция смещения при чтении                     : 6
Способность читать области Lead-in и Lead-out     : Нет
Заполнение пропущенных сэмплов тишиной            : Да
Удаление блоков с тишиной в начале и конце        : Нет
При вычислениях CRC использовались нулевые сэмплы : Да
Интерфейс                                         : Установленный внешний ASPI-интерфейс
Выходной формат          : Пользовательский кодировщик
Выбранный битрейт        : 896 kBit/s
Качество                 : Высокий
Добавление ID3-тега      : Нет
Утилита сжатия           : C:\Program Files (x86)\Exact Audio Copy\FLAC\FLAC.EXE
Дополнительные параметры : -6 -V -T "ARTIST=%artist%" -T "TITLE=%title%" -T "ALBUM=%albumtitle%" -T "DATE=%year%" -T "TRACKNUMBER=%tracknr%" -T "GENRE=%genre%" -T "COMMENT=%comment%" -T "BAND=%albuminterpret%" -T "ALBUMARTIST=%albuminterpret%" -T "COMPOSER=%composer%" %haslyrics%--tag-from-file=LYRICS="%lyricsfile%"%haslyrics% -T "DISCNUMBER=%cdnumber%" -T "TOTALDISCS=%totalcds%" -T "TOTALTRACKS=%numtracks%" %hascover%--picture="%coverfile%"%hascover% %source% -o %dest%
TOC извлечённого CD
     Трек |   Старт  | Длительность | Начальный сектор | Конечный сектор
    ---------------------------------------------------------------------
       1  |  0:00.00 |    4:15.42   |           0      |      19166
       2  |  4:15.42 |    3:05.05   |       19167      |      33046
       3  |  7:20.47 |    3:07.37   |       33047      |      47108
       4  | 10:28.09 |    4:12.74   |       47109      |      66082
       5  | 14:41.08 |    3:35.45   |       66083      |      82252
       6  | 18:16.53 |    3:39.69   |       82253      |      98746
       7  | 21:56.47 |    3:13.03   |       98747      |     113224
       8  | 25:09.50 |    3:08.33   |      113225      |     127357
       9  | 28:18.08 |    4:29.09   |      127358      |     147541
      10  | 32:47.17 |    3:41.56   |      147542      |     164172
      11  | 36:28.73 |    3:34.50   |      164173      |     180272
      12  | 40:03.48 |    3:07.46   |      180273      |     194343
      13  | 43:11.19 |    3:41.22   |      194344      |     210940
      14  | 46:52.41 |    4:30.08   |      210941      |     231198
      15  | 51:22.49 |    0:36.67   |      231199      |     233965
Характеристики диапазона извлечения и сообщения об ошибках
Выбранный диапазон
     Имя файла E:\Torrents\Jeff Larson - 2002 - Fragile Sunrise\Jeff Larson - Fragile Sunrise.wav
     Пиковый уровень 87.3 %
     Скорость извлечения 8.4 X
     Качество диапазона 100.0 %
     CRC теста 5DF17FC5
     CRC копии 5DF17FC5
     Копирование... OK
Ошибок не произошло
Конец отчёта
==== Контрольная сумма отчёта DFA88C01F2546045955F0F2CB8DBDD6BB7D4F48754B1E54597778F1623A0D409 ====
В записи участвовали: дуэт America, Timothy B.Schmit (Eagles)
Правила, инструкции, FAQ!!!
Торрент  Добавлен [26 мар 2019, 20:00] Скачать торрент Магнет ссылка
Скачать торрент
[ Размер 14.32 КБ / Просмотров 3 ]

Статус
Проверен 
 
Размер  343.84 МБ
Приватный: Нет (DHT включён)
.torrent скачан  0
 


     Отправить личное сообщение
   
Страница 1 из 1
Показать сообщения за:  Поле сортировки  
Начать новую тему Ответить на тему


Сейчас этот форум просматривают: нет зарегистрированных пользователей и гости: 0


Вы не можете начинать темы
Вы не можете отвечать на сообщения
Вы не можете редактировать свои сообщения
Вы не можете удалять свои сообщения
Вы не можете добавлять вложения

Перейти:  
cron