Начать новую тему Ответить на тему
Статистика раздачи
Размер: 491.69 МБ | Добавлен: 26 мар 2019, 20:33 | Скачали: 0
Сидеров: 0  [0 байт/сек]    Личеров: 1  [0 байт/сек]
Пред. тема | След. тема 

Автор
Сообщение

СообщениеДобавлено: 26 мар 2019, 20:33 

Ответить с цитатой 

Cliff Richard - Tarantino Sound
Жанр: Soft Rock, Pop-Rock
Год выпуска диска: 2004
Производитель диска: Россия
Аудио кодек: APE
Тип рипа: image+.cue
Битрейт аудио: lossless
Продолжительность: 78:45
Трэклист:
1. Happy Birthday To You
2. Twenty Flight Rock
3. What'd I Say
4. Pointed Toe Shoes
5. 'D' In Love
6. Shame On You
7. Tough Enough
8. Please Don't Tease
9. Mean Woman Blues
10. Summer Holiday
11. I'm Walking
12. Gee Whiz It's You
13. Here Comes The Summer
14. Move It
15. All At Once
16. Blue Suede Shoes
17. First Lesson In Love
18. To Prove My Love For You
19. Nine Times Out Of Ten
20. Forty Days (To Come Back Home)
21. It'll Be Me
22. Les Girls
23. Almost Like Being In Love
24. Living Doll
25. The Next Time
26. Never Mind
27. Without You
28. Y'arriva
29. The Shake And The Bookworm
30. Mean Streak
31. 50 Tears For Every Kiss
32. We Say Yeah
33. I Gotta Know
34. Tea For Two
35. Dynamite
36. Foot Tapper
Код:
Exact Audio Copy V0.99 prebeta 4 from 23. January 2008
Отчёт EAC об извлечении, выполненном 30. мая 2010, 14:30
Cliff Richard / Tarantino Sound
Дисковод: LITE-ON DVDRW LH-20A1H   Adapter: 3  ID: 1
Режим чтения                 : Достоверность
Использование точного потока : Да
Отключение кэша аудио        : Да
Использование указателей C2  : Нет
Коррекция смещения при чтении                     : 6
Способность читать области Lead-in и Lead-out     : Нет
Заполнение пропущенных сэмплов тишиной            : Да
Удаление блоков с тишиной в начале и конце        : Нет
При вычислениях CRC использовались нулевые сэмплы : Да
Интерфейс                                         : Установленный внешний ASPI-интерфейс
Выходной формат : Внутренние WAV-операции
Формат сэмплов  : 44.100 Гц; 16 бит; стерео
TOC извлечённого CD
     Трек |   Старт  | Длительность | Начальный сектор | Конечный сектор
    ---------------------------------------------------------------------
       1  |  0:00.00 |    1:31.65   |           0      |       6889
       2  |  1:31.65 |    1:45.46   |        6890      |      14810
       3  |  3:17.36 |    2:58.74   |       14811      |      28234
       4  |  6:16.35 |    1:51.56   |       28235      |      36615
       5  |  8:08.16 |    2:24.73   |       36616      |      47488
       6  | 10:33.14 |    2:07.00   |       47489      |      57013
       7  | 12:40.14 |    2:12.52   |       57014      |      66965
       8  | 14:52.66 |    2:56.03   |       66966      |      80168
       9  | 17:48.69 |    2:16.21   |       80169      |      90389
      10  | 20:05.15 |    2:03.14   |       90390      |      99628
      11  | 22:08.29 |    1:48.12   |       99629      |     107740
      12  | 23:56.41 |    1:58.49   |      107741      |     116639
      13  | 25:55.15 |    2:17.68   |      116640      |     126982
      14  | 28:13.08 |    2:20.06   |      126983      |     137488
      15  | 30:33.14 |    2:06.14   |      137489      |     146952
      16  | 32:39.28 |    1:46.63   |      146953      |     154965
      17  | 34:26.16 |    1:52.65   |      154966      |     163430
      18  | 36:19.06 |    1:49.53   |      163431      |     171658
      19  | 38:08.59 |    2:05.36   |      171659      |     181069
      20  | 40:14.20 |    2:44.10   |      181070      |     193379
      21  | 42:58.30 |    1:53.37   |      193380      |     201891
      22  | 44:51.67 |    1:57.47   |      201892      |     210713
      23  | 46:49.39 |    2:02.41   |      210714      |     219904
      24  | 48:52.05 |    2:35.06   |      219905      |     231535
      25  | 51:27.11 |    1:50.42   |      231536      |     239827
      26  | 53:17.53 |    2:00.58   |      239828      |     248885
      27  | 55:18.36 |    2:04.20   |      248886      |     258205
      28  | 57:22.56 |    3:33.52   |      258206      |     274232
      29  | 60:56.33 |    2:14.46   |      274233      |     284328
      30  | 63:11.04 |    1:58.49   |      284329      |     293227
      31  | 65:09.53 |    2:27.42   |      293228      |     304294
      32  | 67:37.20 |    2:10.26   |      304295      |     314070
      33  | 69:47.46 |    2:30.29   |      314071      |     325349
      34  | 72:18.00 |    2:14.74   |      325350      |     335473
      35  | 74:32.74 |    1:50.41   |      335474      |     343764
      36  | 76:23.40 |    2:21.51   |      343765      |     354390
Характеристики диапазона извлечения и сообщения об ошибках
Выбранный диапазон
     Имя файла D:\Cliff Richard - Tarantino Sound.wav
     Пиковый уровень 99.1 %
     Качество диапазона 100.0 %
     CRC копии 1A654CE1
     Копирование... OK
Ошибок не произошло
AccurateRip: сводка
Трек  1  нет в базе данных
Трек  2  нет в базе данных
Трек  3  нет в базе данных
Трек  4  нет в базе данных
Трек  5  нет в базе данных
Трек  6  нет в базе данных
Трек  7  нет в базе данных
Трек  8  нет в базе данных
Трек  9  нет в базе данных
Трек 10  нет в базе данных
Трек 11  нет в базе данных
Трек 12  нет в базе данных
Трек 13  нет в базе данных
Трек 14  нет в базе данных
Трек 15  нет в базе данных
Трек 16  нет в базе данных
Трек 17  нет в базе данных
Трек 18  нет в базе данных
Трек 19  нет в базе данных
Трек 20  нет в базе данных
Трек 21  нет в базе данных
Трек 22  нет в базе данных
Трек 23  нет в базе данных
Трек 24  нет в базе данных
Трек 25  нет в базе данных
Трек 26  нет в базе данных
Трек 27  нет в базе данных
Трек 28  нет в базе данных
Трек 29  нет в базе данных
Трек 30  нет в базе данных
Трек 31  нет в базе данных
Трек 32  нет в базе данных
Трек 33  нет в базе данных
Трек 34  нет в базе данных
Трек 35  нет в базе данных
Трек 36  нет в базе данных
Ни одного трека нет в базе AccurateRip
Конец отчёта
Код:
REM GENRE "Soft Rock"
REM DATE 2004
REM DISCID 34127524
REM COMMENT "ExactAudioCopy v0.99pb4"
PERFORMER "Cliff Richard"
TITLE "Tarantino Sound"
FILE "Cliff Richard - Tarantino Sound.ape" WAVE
  TRACK 01 AUDIO
    TITLE "Happy Birthday To You"
    PERFORMER "Cliff Richard"
    INDEX 01 00:00:00
  TRACK 02 AUDIO
    TITLE "Twenty Flight Rock"
    PERFORMER "Cliff Richard"
    INDEX 01 01:31:65
  TRACK 03 AUDIO
    TITLE "What'd I Say"
    PERFORMER "Cliff Richard"
    INDEX 01 03:17:36
  TRACK 04 AUDIO
    TITLE "Pointed Toe Shoes"
    PERFORMER "Cliff Richard"
    INDEX 01 06:16:35
  TRACK 05 AUDIO
    TITLE "'D' In Love"
    PERFORMER "Cliff Richard"
    INDEX 01 08:08:16
  TRACK 06 AUDIO
    TITLE "Shame On You"
    PERFORMER "Cliff Richard"
    INDEX 01 10:33:14
  TRACK 07 AUDIO
    TITLE "Tough Enough"
    PERFORMER "Cliff Richard"
    INDEX 01 12:40:14
  TRACK 08 AUDIO
    TITLE "Please Don't Tease"
    PERFORMER "Cliff Richard"
    INDEX 01 14:52:66
  TRACK 09 AUDIO
    TITLE "Mean Woman Blues"
    PERFORMER "Cliff Richard"
    INDEX 01 17:48:69
  TRACK 10 AUDIO
    TITLE "Summer Holiday"
    PERFORMER "Cliff Richard"
    INDEX 01 20:05:15
  TRACK 11 AUDIO
    TITLE "I'm Walking"
    PERFORMER "Cliff Richard"
    INDEX 01 22:08:29
  TRACK 12 AUDIO
    TITLE "Gee Whiz It's You"
    PERFORMER "Cliff Richard"
    INDEX 01 23:56:41
  TRACK 13 AUDIO
    TITLE "Here Comes The Summer"
    PERFORMER "Cliff Richard"
    INDEX 01 25:55:15
  TRACK 14 AUDIO
    TITLE "Move It"
    PERFORMER "Cliff Richard"
    INDEX 01 28:13:08
  TRACK 15 AUDIO
    TITLE "All At Once"
    PERFORMER "Cliff Richard"
    INDEX 01 30:33:14
  TRACK 16 AUDIO
    TITLE "Blue Suede Shoes"
    PERFORMER "Cliff Richard"
    INDEX 01 32:39:28
  TRACK 17 AUDIO
    TITLE "First Lesson In Love"
    PERFORMER "Cliff Richard"
    INDEX 01 34:26:16
  TRACK 18 AUDIO
    TITLE "To Prove My Love For You"
    PERFORMER "Cliff Richard"
    INDEX 01 36:19:06
  TRACK 19 AUDIO
    TITLE "Nine Times Out Of Ten"
    PERFORMER "Cliff Richard"
    INDEX 01 38:08:59
  TRACK 20 AUDIO
    TITLE "Forty Days (To Come Back Home)"
    PERFORMER "Cliff Richard"
    INDEX 01 40:14:20
  TRACK 21 AUDIO
    TITLE "It'll Be Me"
    PERFORMER "Cliff Richard"
    INDEX 01 42:58:30
  TRACK 22 AUDIO
    TITLE "Les Girls"
    PERFORMER "Cliff Richard"
    INDEX 01 44:51:67
  TRACK 23 AUDIO
    TITLE "Almost Like Being In Love"
    PERFORMER "Cliff Richard"
    INDEX 01 46:49:39
  TRACK 24 AUDIO
    TITLE "Living Doll"
    PERFORMER "Cliff Richard"
    INDEX 01 48:52:05
  TRACK 25 AUDIO
    TITLE "The Next Time"
    PERFORMER "Cliff Richard"
    INDEX 01 51:27:11
  TRACK 26 AUDIO
    TITLE "Never Mind"
    PERFORMER "Cliff Richard"
    INDEX 01 53:17:53
  TRACK 27 AUDIO
    TITLE "Without You"
    PERFORMER "Cliff Richard"
    INDEX 01 55:18:36
  TRACK 28 AUDIO
    TITLE "Y'arriva"
    PERFORMER "Cliff Richard"
    INDEX 01 57:22:56
  TRACK 29 AUDIO
    TITLE "The Shake And The Bookworm"
    PERFORMER "Cliff Richard"
    INDEX 01 60:56:33
  TRACK 30 AUDIO
    TITLE "Mean Streak"
    PERFORMER "Cliff Richard"
    INDEX 01 63:11:04
  TRACK 31 AUDIO
    TITLE "50 Tears For Every Kiss"
    PERFORMER "Cliff Richard"
    INDEX 01 65:09:53
  TRACK 32 AUDIO
    TITLE "We Say Yeah"
    PERFORMER "Cliff Richard"
    INDEX 01 67:37:20
  TRACK 33 AUDIO
    TITLE "I Gotta Know"
    PERFORMER "Cliff Richard"
    INDEX 01 69:47:46
  TRACK 34 AUDIO
    TITLE "Tea For Two"
    PERFORMER "Cliff Richard"
    INDEX 01 72:18:00
  TRACK 35 AUDIO
    TITLE "Dynamite"
    PERFORMER "Cliff Richard"
    INDEX 01 74:32:74
  TRACK 36 AUDIO
    TITLE "Foot Tapper"
    PERFORMER "Cliff Richard"
    INDEX 01 76:23:40
Доп. информация: Сканы 600 dpi в комплекте. Собственный рип.
Правила, инструкции, FAQ!!!
Торрент  Добавлен [26 мар 2019, 20:33] Скачать торрент Магнет ссылка
Скачать торрент
[ Размер 20.06 КБ / Просмотров 4 ]

Статус
Проверен 
 
Размер  491.69 МБ
Приватный: Нет (DHT включён)
.torrent скачан  0
 


     Отправить личное сообщение
   
Страница 1 из 1
Показать сообщения за:  Поле сортировки  
Начать новую тему Ответить на тему


Сейчас этот форум просматривают: нет зарегистрированных пользователей и гости: 0


Вы не можете начинать темы
Вы не можете отвечать на сообщения
Вы не можете редактировать свои сообщения
Вы не можете удалять свои сообщения
Вы не можете добавлять вложения

Перейти:  
cron