Начать новую тему Ответить на тему
Статистика раздачи
Размер: 482.55 МБ | Добавлен: 28 апр 2020, 19:54 | Скачали: 0
Сидеров: 0  [0 байт/сек]    Личеров: 0  [0 байт/сек]
Пред. тема | След. тема 

Автор
Сообщение

СообщениеДобавлено: 28 апр 2020, 19:54 

Ответить с цитатой 



Chris Norman Vol.2 - Stars Hits - Новое любовное настроение


Жанр: Soft Rock, Pop Rock
Носитель: CD
Страна-производитель диска (релиза): Украина
Год издания: 2006
Издатель (лейбл): Nikitin (Moon records)
Номер по каталогу: MR 3890-2
Страна исполнителя (группы): UK
Аудиокодек: FLAC (*.flac)
Тип рипа: image+.cue
Продолжительность: 01:07:05
Источник: собственный рип
Наличие сканов в содержимом раздачи: нет
Треклист:
01. Living Next Door To Alice
02. Needles And Pins
03. Oh Carol
04. I’ll Meet You At Midnight
05. Baby It’s You
06. Mexican Girl
07. If You Think To Know How To Love Me
08. Don’t Play Your Rock n’ Roll To Me
09. Lay Back In The Arms Of Someone
10. For A Few Dollars More
11. Babe It’s Up To You 12. Hearts Livin’ On Emotions
13. Stay One More Night
14. Sarah (You Take My Breath Away)
15. She Said She Was A Lucky Girl
16. Follow Me
17. If You Need My Love Tonight
Код:
Exact Audio Copy V1.5 from 20. February 2020
Отчёт EAC об извлечении, выполненном 21. апреля 2020, 17:38
Chris Norman Vol. 2  / Star Hits - Новое Любовное Настроение
Дисковод: HL-DT-STDVDRAM GH24NSB0   Adapter: 1  ID: 0
Режим чтения                 : Достоверность
Использование точного потока : Да
Отключение кэша аудио        : Да
Использование указателей C2  : Нет
Коррекция смещения при чтении                     : 6
Способность читать области Lead-in и Lead-out     : Нет
Заполнение пропущенных сэмплов тишиной            : Да
Удаление блоков с тишиной в начале и конце        : Нет
При вычислениях CRC использовались нулевые сэмплы : Да
Интерфейс                                         : Встроенный Win32-интерфейс для Win NT/2000
Выходной формат          : Пользовательский кодировщик
Выбранный битрейт        : 768 kBit/s
Качество                 : Высокий
Добавление ID3-тега      : Нет
Утилита сжатия           : C:\Program Files\Exact Audio Copy\FLAC\FLAC.EXE
Дополнительные параметры : -6 -V -T "ARTIST=%artist%" -T "TITLE=%title%" -T "ALBUM=%albumtitle%" -T "DATE=%year%" -T "TRACKNUMBER=%tracknr%" -T "GENRE=%genre%" -T "COMMENT=%comment%" -T "BAND=%albuminterpret%" -T "ALBUMARTIST=%albuminterpret%" -T "COMPOSER=%composer%" %haslyrics%--tag-from-file=LYRICS="%lyricsfile%"%haslyrics% -T "DISCNUMBER=%cdnumber%" -T "TOTALDISCS=%totalcds%" -T "TOTALTRACKS=%numtracks%" %hascover%--picture="%coverfile%"%hascover% %source% -o %dest%
TOC извлечённого CD
     Трек |   Старт  | Длительность | Начальный сектор | Конечный сектор
    ---------------------------------------------------------------------
       1  |  0:00.00 |    3:33.15   |           0      |      15989
       2  |  3:33.15 |    2:44.35   |       15990      |      28324
       3  |  6:17.50 |    3:46.55   |       28325      |      45329
       4  | 10:04.30 |    3:20.45   |       45330      |      60374
       5  | 13:25.00 |    4:05.67   |       60375      |      78816
       6  | 17:30.67 |    4:00.18   |       78817      |      96834
       7  | 21:31.10 |    3:56.50   |       96835      |     114584
       8  | 25:27.60 |    3:28.30   |      114585      |     130214
       9  | 28:56.15 |    4:24.00   |      130215      |     150014
      10  | 33:20.15 |    3:43.43   |      150015      |     166782
      11  | 37:03.58 |    3:51.57   |      166783      |     184164
      12  | 40:55.40 |    4:18.56   |      184165      |     203570
      13  | 45:14.21 |    4:11.07   |      203571      |     222402
      14  | 49:25.28 |    6:01.06   |      222403      |     249483
      15  | 55:26.34 |    3:20.73   |      249484      |     264556
      16  | 58:47.32 |    4:01.46   |      264557      |     282677
      17  | 62:49.03 |    4:14.39   |      282678      |     301766
Характеристики диапазона извлечения и сообщения об ошибках
Выбранный диапазон
     Имя файла C:\Documents and Settings\User\Мои документы\Chris Norman Vol. 2  - Star Hits - Новое Любовное Настроение.wav
     Пиковый уровень 100.0 %
     Скорость извлечения 1.8 X
     Качество диапазона 100.0 %
     CRC теста 3BFCD2EB
     CRC копии 3BFCD2EB
     Копирование... OK
Ошибок не произошло
AccurateRip: сводка
Трек  1  точность не определена (достоверность 2)  [3FFFA183], AccurateRip вернул [AA0F41DF]  (AR v2)
Трек  2  точность не определена (достоверность 2)  [F8E1A0C5], AccurateRip вернул [D691F694]  (AR v2)
Трек  3  точность не определена (достоверность 2)  [4E89CF74], AccurateRip вернул [80B4BD49]  (AR v2)
Трек  4  точность не определена (достоверность 2)  [D0AAA157], AccurateRip вернул [8ABC7CC0]  (AR v2)
Трек  5  точность не определена (достоверность 2)  [8C85A6C8], AccurateRip вернул [CA06E631]  (AR v2)
Трек  6  точность не определена (достоверность 2)  [749D125B], AccurateRip вернул [8E6CEB2D]  (AR v2)
Трек  7  точность не определена (достоверность 2)  [AA99AFAD], AccurateRip вернул [6D7C560A]  (AR v2)
Трек  8  точность не определена (достоверность 2)  [3A89102F], AccurateRip вернул [ACA80102]  (AR v2)
Трек  9  точность не определена (достоверность 2)  [6778583C], AccurateRip вернул [B3C14688]  (AR v2)
Трек 10  точность не определена (достоверность 2)  [AB4B496D], AccurateRip вернул [8491F4ED]  (AR v2)
Трек 11  точность не определена (достоверность 2)  [AE9712B4], AccurateRip вернул [4AFC0870]  (AR v2)
Трек 12  точность не определена (достоверность 2)  [048C8269], AccurateRip вернул [F7562ECE]  (AR v2)
Трек 13  точность не определена (достоверность 2)  [4282EB37], AccurateRip вернул [602BE911]  (AR v2)
Трек 14  точность не определена (достоверность 2)  [6A723371], AccurateRip вернул [D29E261F]  (AR v2)
Трек 15  точность не определена (достоверность 2)  [C8B4F320], AccurateRip вернул [3FB2823A]  (AR v2)
Трек 16  точность не определена (достоверность 2)  [8AC8C86B], AccurateRip вернул [ABE1355B]  (AR v2)
Трек 17  точность не определена (достоверность 2)  [FC559686], AccurateRip вернул [AD3146C9]  (AR v2)
Ни один трек не прошёл проверки на точность
В вашей базе может быть иной вариант штамповки диска
Конец отчёта
---- CUETools DB Plugin V2.1.6
[CTDB TOCID: f2Q68TZdx5SFo5O91bxNySCXgkY-] found
Submit result: f2Q68TZdx5SFo5O91bxNySCXgkY- has been confirmed
Track | CTDB Status
  1   | (1/1) Accurately ripped
  2   | (1/1) Accurately ripped
  3   | (1/1) Accurately ripped
  4   | (1/1) Accurately ripped
  5   | (1/1) Accurately ripped
  6   | (1/1) Accurately ripped
  7   | (1/1) Accurately ripped
  8   | (1/1) Accurately ripped
  9   | (1/1) Accurately ripped
 10   | (1/1) Accurately ripped
 11   | (1/1) Accurately ripped
 12   | (1/1) Accurately ripped
 13   | (1/1) Accurately ripped
 14   | (1/1) Accurately ripped
 15   | (1/1) Accurately ripped
 16   | (1/1) Accurately ripped
 17   | (1/1) Accurately ripped
==== Контрольная сумма отчёта F74AE72AD3BDAF3C91C49C9B7B8CEA10C8BA0E27BA6869201E3F38D40A864D44 ====
Код:
REM GENRE Folk/Rock
REM DATE 2006
REM DISCID F10FB711
REM COMMENT "ExactAudioCopy v1.5"
PERFORMER "Chris Norman Vol. 2 "
TITLE "Star Hits - Новое Любовное Настроение"
REM COMPOSER ""
FILE "Chris Norman Vol. 2  - Star Hits - Новое Любовное Настроение.flac" WAVE
  TRACK 01 AUDIO
    TITLE "Living Next Door To Alice"
    PERFORMER "Chris Norman Vol. 2 "
    REM COMPOSER ""
    INDEX 01 00:00:00
  TRACK 02 AUDIO
    TITLE "Needles And Pins"
    PERFORMER "Chris Norman Vol. 2 "
    REM COMPOSER ""
    INDEX 00 03:31:15
    INDEX 01 03:33:15
  TRACK 03 AUDIO
    TITLE "Oh Carol"
    PERFORMER "Chris Norman Vol. 2 "
    REM COMPOSER ""
    INDEX 00 06:15:50
    INDEX 01 06:17:50
  TRACK 04 AUDIO
    TITLE "I'll Meet You At Midnight"
    PERFORMER "Chris Norman Vol. 2 "
    REM COMPOSER ""
    INDEX 00 10:02:30
    INDEX 01 10:04:30
  TRACK 05 AUDIO
    TITLE "Baby It's You"
    PERFORMER "Chris Norman Vol. 2 "
    REM COMPOSER ""
    INDEX 00 13:23:00
    INDEX 01 13:25:00
  TRACK 06 AUDIO
    TITLE "Mexican Girl"
    PERFORMER "Chris Norman Vol. 2 "
    REM COMPOSER ""
    INDEX 00 17:28:67
    INDEX 01 17:30:67
  TRACK 07 AUDIO
    TITLE "If You Think To Know How To Love Me"
    PERFORMER "Chris Norman Vol. 2 "
    REM COMPOSER ""
    INDEX 00 21:29:10
    INDEX 01 21:31:10
  TRACK 08 AUDIO
    TITLE "Don't Play Your Rock n' Roll To Me"
    PERFORMER "Chris Norman Vol. 2 "
    REM COMPOSER ""
    INDEX 00 25:25:60
    INDEX 01 25:27:60
  TRACK 09 AUDIO
    TITLE "Lay Back In The Arms Of Someone"
    PERFORMER "Chris Norman Vol. 2 "
    REM COMPOSER ""
    INDEX 00 28:54:15
    INDEX 01 28:56:15
  TRACK 10 AUDIO
    TITLE "For A Few Dollars More"
    PERFORMER "Chris Norman Vol. 2 "
    REM COMPOSER ""
    INDEX 00 33:18:15
    INDEX 01 33:20:15
  TRACK 11 AUDIO
    TITLE "Babe It's Up To You 12. Hearts Livin' On Emotions"
    PERFORMER "Chris Norman Vol. 2 "
    REM COMPOSER ""
    INDEX 00 37:01:58
    INDEX 01 37:03:58
  TRACK 12 AUDIO
    TITLE "Babe It's Up To You 12. Hearts Livin' On Emotions"
    PERFORMER "Chris Norman Vol. 2 "
    REM COMPOSER ""
    INDEX 00 40:53:40
    INDEX 01 40:55:40
  TRACK 13 AUDIO
    TITLE "Stay One More Night"
    PERFORMER "Chris Norman Vol. 2 "
    REM COMPOSER ""
    INDEX 00 45:12:21
    INDEX 01 45:14:21
  TRACK 14 AUDIO
    TITLE "Sarah (You Take My Breath Away)"
    PERFORMER "Chris Norman Vol. 2 "
    REM COMPOSER ""
    INDEX 00 49:23:28
    INDEX 01 49:25:28
  TRACK 15 AUDIO
    TITLE "She Said She Was A Lucky Girl"
    PERFORMER "Chris Norman Vol. 2 "
    REM COMPOSER ""
    INDEX 00 55:24:34
    INDEX 01 55:26:34
  TRACK 16 AUDIO
    TITLE "Follow Me"
    PERFORMER "Chris Norman Vol. 2 "
    REM COMPOSER ""
    INDEX 00 58:45:32
    INDEX 01 58:47:32
  TRACK 17 AUDIO
    TITLE "If You Need My Love Tonight"
    PERFORMER "Chris Norman Vol. 2 "
    REM COMPOSER ""
    INDEX 00 62:47:03
    INDEX 01 62:49:03
Код:
-----------------------
DON'T MODIFY THIS FILE
-----------------------
PERFORMER: auCDtect Task Manager, ver. 1.5.1RC4 build 1.5.1.5
Copyright (c) 2008-2010 y-soft. All rights reserved
[url=http://y-soft.org]http://y-soft.org[/url]
ANALYZER: auCDtect: CD records authenticity detector, version 0.8.2
Copyright (c) 2004 Oleg Berngardt. All rights reserved.
Copyright (c) 2004 Alexander Djourik. All rights reserved.
FILE: Chris Norman Vol. 2  - Star Hits - Новое Любовное Настроение.flac
  Size: 505971264 Hash: CF10458BE5835328FE55BE3BC510DCB3 Accuracy: -m0
  Conclusion: CDDA 100%
  Signature: 3027679BB4B540F49B8E3D1F90477466BA0D29A6

http://moon.ua/muzika/vola-2-star-hits-a-novoe-lyubovnoe-nastroenie.html
Правила, инструкции, FAQ!!!
Торрент  Добавлен [28 апр 2020, 19:54] Скачать торрент Магнет ссылка
Скачать торрент
[ Размер 19.71 КБ / Просмотров 5 ]

Статус
Проверен 
 
Размер  482.55 МБ
Приватный: Нет (DHT включён)
.torrent скачан  0
 


     Отправить личное сообщение
   
Страница 1 из 1
Показать сообщения за:  Поле сортировки  
Начать новую тему Ответить на тему


Сейчас этот форум просматривают: нет зарегистрированных пользователей и гости: 0


Вы не можете начинать темы
Вы не можете отвечать на сообщения
Вы не можете редактировать свои сообщения
Вы не можете удалять свои сообщения
Вы не можете добавлять вложения

Перейти:  
cron
cron