Начать новую тему Ответить на тему
Статистика раздачи
Размер: 403.71 МБ | Добавлен: 26 мар 2019, 19:28 | Скачали: 0
Сидеров: 1  [0 байт/сек]    Личеров: 2  [0 байт/сек]
Пред. тема | След. тема 

Автор
Сообщение

СообщениеДобавлено: 26 мар 2019, 19:28 

Ответить с цитатой 

Brian Wilson And Friends / A Sound Stage Special Event
Жанр: Soft Rock, Pop, Pop Rock
Носитель: CD
Страна-производитель диска (релиза): EU
Год издания: 2016
Издатель (лейбл): BMG, Salvo
Номер по каталогу: SALVOSVX041
Страна исполнителя (группы): USA
Аудиокодек: FLAC (*.flac)
Тип рипа: image+.cue
Битрейт аудио: lossless
Продолжительность: 01:01:42
Источник (релизер): The.NOOG
Наличие сканов в содержимом раздачи: Front, Back
Треклист:
01 Our Prayer
02 Heroes And Villains
03 Sloop John B
04 Dance Dance Dance
05 Good Vibrations
06 This Beautiful Day
07 Marcella
08 Wild Honey
09 Sail On Sailor
10 Sail Away
11 Half Moon Bay
12 Don't Talk
13 The Right Time
14 Wouldn't It Be Nice
15 Help Me Rhonda
16 Fun Fun Fun
17 California Girls
18 California Saga
19 All Summer Long
Код:
Exact Audio Copy V1.1 from 23. June 2015
EAC extraction logfile from 16. May 2016, 16:49
Brian Wilson And Friends / A Sound Stage Special Event
Used drive  : HL-DT-STDVDRAM GH24NSD1   Adapter: 0  ID: 0
Read mode               : Secure
Utilize accurate stream : Yes
Defeat audio cache      : Yes
Make use of C2 pointers : No
Read offset correction                      : 6
Overread into Lead-In and Lead-Out          : No
Fill up missing offset samples with silence : Yes
Delete leading and trailing silent blocks   : No
Null samples used in CRC calculations       : Yes
Used interface                              : Installed external ASPI interface
Used output format : Internal WAV Routines
Sample format      : 44.100 Hz; 16 Bit; Stereo
TOC of the extracted CD
     Track |   Start  |  Length  | Start sector | End sector
    ---------------------------------------------------------
        1  |  0:00.00 |  1:21.73 |         0    |     6147
        2  |  1:21.73 |  4:42.65 |      6148    |    27362
        3  |  6:04.63 |  3:30.69 |     27363    |    43181
        4  |  9:35.57 |  2:29.58 |     43182    |    54414
        5  | 12:05.40 |  4:28.54 |     54415    |    74568
        6  | 16:34.19 |  1:23.07 |     74569    |    80800
        7  | 17:57.26 |  3:44.50 |     80801    |    97650
        8  | 21:42.01 |  3:40.16 |     97651    |   114166
        9  | 25:22.17 |  3:40.25 |    114167    |   130691
       10  | 29:02.42 |  3:47.59 |    130692    |   147775
       11  | 32:50.26 |  3:31.71 |    147776    |   163671
       12  | 36:22.22 |  3:07.20 |    163672    |   177716
       13  | 39:29.42 |  2:50.00 |    177717    |   190466
       14  | 42:19.42 |  2:43.27 |    190467    |   202718
       15  | 45:02.69 |  3:36.66 |    202719    |   218984
       16  | 48:39.60 |  3:29.07 |    218985    |   234666
       17  | 52:08.67 |  3:19.49 |    234667    |   249640
       18  | 55:28.41 |  3:16.42 |    249641    |   264382
       19  | 58:45.08 |  2:56.58 |    264383    |   277640
Range status and errors
Selected range
     Filename H:\SPOTNET\Brian Wilson and Friends (EAC)\Brian Wilson And Friends - A Sound Stage Special Event.wav
     Peak level 100.0 %
     Extraction speed 7.4 X
     Range quality 100.0 %
     Test CRC 629A1686
     Copy CRC 629A1686
     Copy OK
No errors occurred
AccurateRip summary
Track  1  not present in database
Track  2  not present in database
Track  3  not present in database
Track  4  not present in database
Track  5  not present in database
Track  6  not present in database
Track  7  not present in database
Track  8  not present in database
Track  9  not present in database
Track 10  not present in database
Track 11  not present in database
Track 12  not present in database
Track 13  not present in database
Track 14  not present in database
Track 15  not present in database
Track 16  not present in database
Track 17  not present in database
Track 18  not present in database
Track 19  not present in database
None of the tracks are present in the AccurateRip database
End of status report
Код:
REM GENRE Pop
REM DATE 2016
REM DISCID 040E7513
REM COMMENT "ExactAudioCopy v1.1"
PERFORMER "Brian Wilson And Friends"
TITLE "A SoundStage Special Event"
FILE "Brian Wilson And Friends - A SoundStage Special Event.flac" WAVE
  TRACK 01 AUDIO
    TITLE "Our Prayer"
    PERFORMER "Brian Wilson And Friends"
    INDEX 01 00:00:00
  TRACK 02 AUDIO
    TITLE "Heroes And Villains"
    PERFORMER "Brian Wilson And Friends"
    INDEX 01 01:21:73
  TRACK 03 AUDIO
    TITLE "Sloop John B"
    PERFORMER "Brian Wilson And Friends"
    INDEX 01 06:04:63
  TRACK 04 AUDIO
    TITLE "Dance Dance Dance"
    PERFORMER "Brian Wilson And Friends"
    INDEX 01 09:35:57
  TRACK 05 AUDIO
    TITLE "Good Vibrations"
    PERFORMER "Brian Wilson And Friends"
    INDEX 01 12:05:40
  TRACK 06 AUDIO
    TITLE "This Beautiful Day"
    PERFORMER "Brian Wilson And Friends"
    INDEX 00 16:33:02
    INDEX 01 16:34:19
  TRACK 07 AUDIO
    TITLE "Marcella"
    PERFORMER "Brian Wilson And Friends"
    INDEX 00 17:55:66
    INDEX 01 17:57:26
  TRACK 08 AUDIO
    TITLE "Wild Honey"
    PERFORMER "Brian Wilson And Friends"
    INDEX 01 21:42:01
  TRACK 09 AUDIO
    TITLE "Sail On Sailor"
    PERFORMER "Brian Wilson And Friends"
    INDEX 00 25:21:07
    INDEX 01 25:22:17
  TRACK 10 AUDIO
    TITLE "Sail Away"
    PERFORMER "Brian Wilson And Friends"
    INDEX 00 29:01:39
    INDEX 01 29:02:42
  TRACK 11 AUDIO
    TITLE "Half Moon Bay"
    PERFORMER "Brian Wilson And Friends"
    INDEX 01 32:50:26
  TRACK 12 AUDIO
    TITLE "Don't Talk"
    PERFORMER "Brian Wilson And Friends"
    INDEX 01 36:22:22
  TRACK 13 AUDIO
    TITLE "The Right Time"
    PERFORMER "Brian Wilson And Friends"
    INDEX 01 39:29:42
  TRACK 14 AUDIO
    TITLE "Wouldn't It Be Nice"
    PERFORMER "Brian Wilson And Friends"
    INDEX 01 42:19:42
  TRACK 15 AUDIO
    TITLE "Help Me Rhonda"
    PERFORMER "Brian Wilson And Friends"
    INDEX 01 45:02:69
  TRACK 16 AUDIO
    TITLE "Fun Fun Fun"
    PERFORMER "Brian Wilson And Friends"
    INDEX 00 48:38:72
    INDEX 01 48:39:60
  TRACK 17 AUDIO
    TITLE "California Girls"
    PERFORMER "Brian Wilson And Friends"
    INDEX 00 52:08:06
    INDEX 01 52:08:67
  TRACK 18 AUDIO
    TITLE "California Saga"
    PERFORMER "Brian Wilson And Friends"
    INDEX 00 55:27:48
    INDEX 01 55:28:41
  TRACK 19 AUDIO
    TITLE "All Summer Long"
    PERFORMER "Brian Wilson And Friends"
    INDEX 00 58:44:16
    INDEX 01 58:45:08
Код:
foobar2000 1.1.10 / Dynamic Range Meter 1.1.1
log date: 2016-05-19 16:40:06
--------------------------------------------------------------------------------
Analyzed: Brian Wilson And Friends / A SoundStage Special Event
--------------------------------------------------------------------------------
DR         Peak         RMS     Duration Track
--------------------------------------------------------------------------------
DR9       -2.08 dB   -15.91 dB      1:22 ?-Our Prayer
DR9       -0.20 dB   -12.07 dB      4:43 ?-Heroes And Villains
DR9       -0.20 dB   -12.29 dB      3:31 ?-Sloop John B
DR9        0.00 dB   -10.51 dB      2:30 ?-Dance Dance Dance
DR8        0.00 dB   -10.76 dB      4:29 ?-Good Vibrations
DR10      -0.35 dB   -14.15 dB      1:23 ?-This Beautiful Day
DR8        0.00 dB    -9.52 dB      3:45 ?-Marcella
DR9        0.00 dB   -10.65 dB      3:40 ?-Wild Honey
DR8        0.00 dB    -9.53 dB      3:40 ?-Sail On Sailor
DR8        0.00 dB   -10.16 dB      3:48 ?-Sail Away
DR8       -1.00 dB   -12.04 dB      3:32 ?-Half Moon Bay
DR11      -0.20 dB   -13.53 dB      3:07 ?-Don't Talk
DR9       -0.20 dB   -11.66 dB      2:50 ?-The Right Time
DR8        0.00 dB    -9.90 dB      2:43 ?-Wouldn't It Be Nice
DR9        0.00 dB   -10.48 dB      3:37 ?-Help Me Rhonda
DR8       -0.20 dB    -9.92 dB      3:29 ?-Fun Fun Fun
DR7        0.00 dB    -9.54 dB      3:20 ?-California Girls
DR4       -2.00 dB    -7.16 dB      3:17 ?-California Saga
DR7       -0.20 dB    -8.26 dB      2:57 ?-All Summer Long
--------------------------------------------------------------------------------
Number of tracks:  19
Official DR value: DR8
Samplerate:        44100 Hz
Channels:          2
Bits per sample:   16
Bitrate:           912 kbps
Codec:             FLAC
================================================================================
Этот концерт был записан в The Venetian Theatre, Лас-Вегас и издан в комплекте аудио-CD + видео-DVD. Прозвучало много вечнозеленой классики из репертуара The Beach Boys. В числе "друзей" замечены Блонди Чаплин, Рики Фатаар, Марк Ишэм, Кэйси Масгрейвс, Нэйт Руэсс
Правила, инструкции, FAQ!!!
Торрент  Добавлен [26 мар 2019, 19:28] Скачать торрент Магнет ссылка
Скачать торрент
[ Размер 16.62 КБ / Просмотров 3 ]

Статус
Проверен 
 
Размер  403.71 МБ
Приватный: Нет (DHT включён)
.torrent скачан  0
 


     Отправить личное сообщение
   
Страница 1 из 1
Показать сообщения за:  Поле сортировки  
Начать новую тему Ответить на тему


Сейчас этот форум просматривают: нет зарегистрированных пользователей и гости: 0


Вы не можете начинать темы
Вы не можете отвечать на сообщения
Вы не можете редактировать свои сообщения
Вы не можете удалять свои сообщения
Вы не можете добавлять вложения

Перейти:  
cron