Начать новую тему Ответить на тему
Статистика раздачи
Размер: 488.73 МБ | Добавлен: 26 мар 2019, 20:28 | Скачали: 0
Сидеров: 1  [0 байт/сек]    Личеров: 0  [0 байт/сек]
Пред. тема | След. тема 

Автор
Сообщение

СообщениеДобавлено: 26 мар 2019, 20:28 

Ответить с цитатой 

Eric Carmen - All By Myself
Жанр: Soft rock/Pop
Год выпуска диска: 1999
Производитель диска: Australia
Аудио кодек: APE
Тип рипа: image+.cue
Битрейт аудио: lossless
Продолжительность: 1:16:10
Трэклист:
1. All By Myself
2. Never Gonna Fall In Love Again
3. Hey Deanie
4. Make Me Lose Control
5. Change Of Heart
6. She Did It
7. It Hurts Too Much
8. No Hard Feelings
9. Boats Against The Current
10. Sunrise
11. I Think I Found Myself
12. Nowhere To Hide
13. Take It Or Leave It
14. Someday
15. Love Is All That Matters
16. Last Night
17. Run Away
Exact Audio Copy V0.99 prebeta 4 from 23. January 2008
Отчёт EAC об извлечении, выполненном 15. июня 2009, 18:46
Eric Carmen / All by myself
Дисковод: Optiarc DVD RW AD-7220A Adapter: 1 ID: 1
Режим чтения : Достоверность
Использование точного потока : Да
Отключение кэша аудио : Да
Использование указателей C2 : Нет
Коррекция смещения при чтении : 6
Способность читать области Lead-in и Lead-out : Нет
Заполнение пропущенных сэмплов тишиной : Да
Удаление блоков с тишиной в начале и конце : Нет
При вычислениях CRC использовались нулевые сэмплы : Да
Интерфейс : Установленный внешний ASPI-интерфейс
Выходной формат : Внутренние WAV-операции
Формат сэмплов : 44.100 Гц; 16 бит; стерео
TOC извлечённого CD
Трек | Старт | Длительность | Начальный сектор | Конечный сектор
---------------------------------------------------------------------
1 | 0:00.00 | 4:33.50 | 0 | 20524
2 | 4:33.50 | 3:45.72 | 20525 | 37471
3 | 8:19.47 | 4:29.10 | 37472 | 57656
4 | 12:48.57 | 4:46.15 | 57657 | 79121
5 | 17:34.72 | 3:41.15 | 79122 | 95711
6 | 21:16.12 | 3:48.00 | 95712 | 112811
7 | 25:04.12 | 4:17.43 | 112812 | 132129
8 | 29:21.55 | 5:38.32 | 132130 | 157511
9 | 35:00.12 | 4:22.20 | 157512 | 177181
10 | 39:22.32 | 5:22.58 | 177182 | 201389
11 | 44:45.15 | 4:21.57 | 201390 | 221021
12 | 49:06.72 | 4:59.65 | 221022 | 243511
13 | 54:06.62 | 3:57.70 | 243512 | 261356
14 | 58:04.57 | 2:46.70 | 261357 | 273876
15 | 60:51.52 | 4:17.00 | 273877 | 293151
16 | 65:08.52 | 2:59.50 | 293152 | 306626
17 | 68:08.27 | 8:02.58 | 306627 | 342834
Характеристики диапазона извлечения и сообщения об ошибках
Выбранный диапазон
Имя файла C:\Documents and Settings\Администратор\Рабочий стол\rutracker.org\раздачи\аудио\Eric Carmen - All by myself\Eric Carmen - All by myself.wav
Пиковый уровень 98.8 %
Качество диапазона 100.0 %
CRC копии 78FE336E
Копирование... OK
Ошибок не произошло
Конец отчёта
Правила, инструкции, FAQ!!!
Торрент  Добавлен [26 мар 2019, 20:28] Скачать торрент Магнет ссылка
Скачать торрент
[ Размер 19.79 КБ / Просмотров 4 ]

Статус
Проверен 
 
Размер  488.73 МБ
Приватный: Нет (DHT включён)
.torrent скачан  0
 


     Отправить личное сообщение
   
Страница 1 из 1
Показать сообщения за:  Поле сортировки  
Начать новую тему Ответить на тему


Сейчас этот форум просматривают: нет зарегистрированных пользователей и гости: 0


Вы не можете начинать темы
Вы не можете отвечать на сообщения
Вы не можете редактировать свои сообщения
Вы не можете удалять свои сообщения
Вы не можете добавлять вложения

Перейти:  
cron